This file was generated by Ched 2.6.4.0.
#TITLE ""
#ARTIST ""
#DESIGNER ""
#DIFFICULTY 0
#PLAYLEVEL
#SONGID ""
#WAVE ""
#WAVEOFFSET 0
#JACKET ""
#REQUEST "ticks_per_beat 480"
#00002: 4
#BPM01: 210
#00008: 01
#TIL00: ""
#HISPEED 00
#MEASUREHS 00
#00017:12121200
#00015:00000000000000000000001300000000
#00018:0000000000130000
#0001b:00000013
#00012:00000013
#00317:1313
#00316:0000001300130000
#0031b:0013000000130000
#00315:0000000000000013
#00312:00130000
#0041b:13000000000000000000001300000000
#00418:0013130026130000
#00415:13000000000013000013000000000000
#00412:00131316
#00517:0013000013000000
#00512:00000000130000000013000013000000
#00519:0000000000130000
#0051b:13000013
#00516:0000001300000000
#0071a:14
#00712:1413001300000013
#0071b:0000130000130013
#00715:0000130000130000
#00718:00000013000013000000000000000013
#00915:0013130000001300
#00912:2300001300130013
#00918:00000013000000001300000000001300
#0091b:2300001300130000
#00910:41
#01015:0013001300001313
#01012:0000130000130000
#0101b:1300001300130000
#01018:00000013000000000000000000130000
#01112:1300001300130000
#01118:0013130000001300
#01115:00000013000000001300000000001300
#0111b:1300001300130013
#01218:0013001300000000
#01215:00000013000000001300000000001300
#0121b:0000130000000013
#01217:00000013
#01212:13
#01312:1300001300130013
#01315:0013130000001300
#01318:1300001300130000
#0131b:00000013000000001300000000001300
#01415:13000013000013000000000013000000
#01415:0000001300000000
#0141b:0013001300000000
#0141b:0000001300000000
#01412:0000000000130013
#01418:00000000130000000000130000130000
#0081b:0013000000000000
#00818:00130000
#00814:00000018
#00815:13000000001300000000000000000000
#00812:00000013000000000000000000000000
#01518:0013130000130014
#0151b:1300001300001300
#01512:00000013000000000000130000002400
#01515:1300001300001300
#02614:0013000000001300
#02612:0000130000000013
#02617:0000001300000000
#02619:0013
#02616:13
#02216:0000141300131300
#0221b:0000001300130000
#02212:0013000000000000
#02217:0013000000000000
#02118:0000001313000000
#02116:13130013
#02115:00000000000000130000000000000000
#02112:0013000000130000
#0211b:13000013
#02117:0013000000130013
#02312:0000000000130000
#02316:0000001300001300
#0231b:00130000
#02317:0000000000000013
#02517:0013001313000000
#02512:23131313
#02519:0000000000000013
#0251b:1300000000130000
#02510:41
#03317:00000013
#03312:18261413
#0331b:0000000000000013
#03315:0016001600000000
#03318:00160000
#03316:0000000028000013
#0331a:24
#03412:13131300
#0341b:0013001300000000
#03418:13000000000000000013000000000000
#0341a:00000000000000000000001300000000
#03414:0000000000130000
#03416:00000013
#03415:0000001300000000
#03718:1212000000000000
#03716:0000121200000000
#0371a:0000000012000024
#03714:00001213
#03719:00000013
#03712:0000000000000024
#03710:41
#0411b:0000000013130000
#04113:00130013
#04112:2313
#0411f:11
#04312:0000000013130013
#0431b:1313
#0431a:00130013
#0441b:1313
#04416:0013000000000000
#04412:00000000130000000000001300000000
#04414:13000000000013000013000018000000
#0441a:00130000
#04419:0000000000130000
#04512:1400240024140014
#0451a:1400000014240024
#04516:0014000000000000
#04519:0000001300000000
#04514:0000001300000000
#0421b:0000130000130000
#04217:0000000013000013
#04219:0000001300001300
#04212:1313
#04213:00130013
#04616:14141414
#0461a:0024000000240000
#04618:0000002400000024
#04612:0000002400000024
#04614:0000000000240000
#05017:12121212
#05116:14001400140014001400141414000000
#05215:00001616
#05212:00000000000015000000130000130000
#0521b:00000000000000000013000000001300
#05219:0013141500000000
#05213:00140000
#05214:0013000000000000
#05317:0000001300130000
#05316:0013
#05312:1300001300130000
#05315:00000013
#05318:26000000000000000000000000130000
#0531b:0000130013000013
#0531f:21
#05412:1300001300000000
#0541b:0000000000130000
#05418:00000013
#05415:0000000000000013
#05417:1300001300000000
#05416:00130000
#05512:1300001300001300
#05515:0013000013000000
#05518:00130000130000000000000013000000
#0551b:00000013000013001300000000001300
#05516:0000000000130013
#05510:41
#05612:00001300000000000000001300000000
#0561b:0000001300000000
#05615:0000000000130000
#05617:0000001300001300
#05619:0000000000000013
#05614:00000000000000000000000000130000
#05616:00000000000000000000000000000013
#05712:13000000130000001400000000130000
#0571b:13000000001300001300000013000000
#05715:00000000000013000000000000000013
#05718:00000000000000130000000000001300
#05812:1300130015130013
#05815:0000001300001300
#05818:00000000001300000000000000001300
#0581b:00000000000000130000000000000000
#05819:0015
#0581a:14
#0701b:13
#07016:0014000000000000
#0701a:00000000000000000000000000000000140000000000000000000000000000000000000000000000000000000000000000000000000000000014000000140000
#07015:0000001600000000
#07019:0000000000000000000000000000000025000000150000002500000024141414
#07012:13000000000000000000000000000000140000000000000000000000000000001500000000000000250000000000000015000000000000000000001400000014
#07014:00000000000000000000000000000000000000000000000000000000000000000000000000000000000000000000000000000000000000000014000000140000
#07013:0000000000000000000000000000000000000000000000000000000024141414
#07018:00000000000000000000000000000000000000000000000000000000000000000000000000000000000000000000000000000000000000000000001400000014
#0591b:0013001300000023
#05917:00130013
#05913:0000001300000000
#05912:0000000000130023
#06412:1300001300000000
#06418:1300000000130000
#06416:0000001300001300
#06414:0000000000000013
#06419:00000000000000000000000000130000
#06417:00000000000000000000000000000013
#0641b:00000000130000000000001300000000
#0651b:13000000000000001300000000000013
#06517:00000000000000000000001300000000
#06517:00000000000000000000001300000000
#06512:13000000000000130000000000000000
#06512:13
#06515:0000000000000013
#06518:0000001300000000
#06516:00000013000000000000000000000000
#0671b:0000000000130013
#06716:00130000001300000013000000000000
#06714:1313131313000000
#06712:00000013000000130000000000000000
#06717:0000000000000013
#07113:1414141414141414000000000000000000000000000000000000000000000000
#07114:00140000001400000014000000140000000000000000000000000000000000000000000000000000000000000000000000000000000000000000000000000000
#07112:00000014000000140000001400000014000000000000000000000000000000000000000000000000000000000000000014000000000000000000000000000000
#07119:1414141414141414000000000000000000000000000000000000000000000000
#0711a:00140000001400000014000000140000000000000000000000000000000000001400000000000000000000000000000000000000000000000000000000000000
#07118:00000014000000140000001400000014000000000000000000000000000000000000000000000000000000000000000000000000000000000000000000000000
#07116:0000000000140014
#03918:00000000000000000000000000000016
#0391a:0000000014000022
#03912:14000000140000000000001300000000
#03917:13
#0391b:00000013000000000000000000000000
#03916:0013
#03914:0000001300000000
#0871b:0013
#08718:0000000000130000
#08715:0024002400001300
#08712:0000240000000013
#0871a:0024002400000000
#08717:00240000
#07212:1400001300130014
#07216:00001400000014001400140000140000
#0721a:00140014
#0721b:0013
#07218:26
#07210:41
#0731a:1400000000140000
#07317:00000014
#07315:0000000000000014
#07316:0014000000000000
#07312:2400141400000000
#07412:1400001413001300
#07415:0014000000000000
#07418:00140000
#0741a:00000014000014000000000000001400
#0741b:0000000000130000
#07416:0000000014141424
#07417:00140000000000000000000000000000
#07916:0000000000140014
#07912:0014
#0791a:0024240000001400
#07914:0024240000000000
#03817:0000000000130000
#03814:00000013
#03816:0024242400000013
#03812:0000230000130000
#0381b:0023002300000013
#03819:00000013
#0191b:1300001300001300
#01917:00131300
#01919:0000000000000013
#02012:13000000000000000000001300001300
#0201b:0000001300001300
#02019:0013
#02017:0000000000130000
#02014:0013000000000000
#02016:00130000
#02018:0000000000000013
#02015:00000013
#01815:0000000000000013
#01818:00000013
#01812:0000001300000000
#01816:0000000000130000
#0181b:13
#01819:0013000000000000
#01817:00130000
#01814:0013
#06812:00000013000000001c00000000002300
#06815:00001300001300000000000000000000
#06818:00000000130000130000000000000000
#0681b:0000001300000000
#06816:0000000000000023
#0661b:00000000000000001300000000000013
#06617:00000000000000000000001300000000
#06617:00000000000000000000001300000000
#06612:13000000000000130000000000000000
#06616:00000013000000000000000000000000
#06615:0000000000000013
#06618:0000001300000000
#0841a:14000000000000001400000000000014
#08412:14000000000000140000000000000000
#08416:00000014000000000000001400000000
#08417:0000001400000000
#08415:0000000000000014
#08410:41
#0861a:0000000000140024
#08616:00140000001400000014000000000000
#08614:1414141414000000
#08612:00000014000000140000000000002400
#08512:14000000000000140000000000000000
#08516:00000014000000000000001400000000
#08517:0000001400000000
#0851a:00000000000000001400000000000014
#08515:0000000000000014
#0361a:000000141400
#03616:000000000000001400001400
#03612:000000130000000000130000000000000000140000001400
#0361b:13130000
#03615:13
#03618:0000001300000000
#0471b:13000000000000000000001300000000
#04715:00130000260000000000130026000000
#04718:00001300000000000013000000000000
#04712:00000013000000001300000000000000
#04819:0015
#04812:23142516
#04815:00000013000013000000001300000000
#04818:00001300000000130000130026000012
#0481b:13
#04816:0000000000000012
#0481a:00240000
#04916:12
#04012:00160000001600000000000000000000
#04018:00000016000000160000000000000000
#04014:22220000
#0401a:0022002200000000
#04013:0024
#00117:00130000
#0011b:0000001300130000
#00112:1313
#00116:0013000000130000
#0061a:0014
#00617:0000000000140000
#00616:0013000000000000
#00615:0014
#00612:0000000000140000
#01617:13
#01614:0014000000000000
#01616:00130000
#01615:0000000000131300
#01618:00000000000000000000001300000000
#0161a:0024002424000000
#01612:0000002424000000
#03516:18000013
#0351b:00000013
#03512:2400160028000013
#03517:0000000000000013
#03515:0016001600000000
#0351a:0014
#03518:00260000
#0761a:14000000001400001400000000001400
#07617:00000000000000140000000014000000
#07612:14000000000014002600000000140000
#07615:00000000140000000000000000000014
#07716:00000000140000140000000000000000
#07712:1400001426000000
#0771a:00000000001400000000140000001400
#07717:00000014
#07714:0000000000000014
#07718:2626
#09016:1313
#09017:0000001300130000
#09012:0013000000130000
#09018:0000000000000013
#0901b:00130000
#09112:13000000000000001600001300000000
#09115:0013130000130000
#09118:13000000000013000013000016000000
#0911b:00131300
#09216:0013000013000000
#0921b:00000000130000000013000013000000
#09214:0000000000130000
#09212:13000013
#09217:0000001300000000
#09412:1400130000130013
#0941b:0013001300000013
#0941a:14
#09418:0000130000130000
#09415:00000013000013000000000000000013
#09512:0013000000000000
#09515:00130000
#09518:13000000001300000000000000000000
#0951b:00000013000000000000000000000000
#08816:00130000
#08812:0000001300130000
#0881b:1313
#08817:0013000000130000
#09312:0014
#09315:0000000000140000
#09317:0013000014000000
#0931a:0000000000140000
#06116:0000001300130000
#06117:0013
#0611b:1300001300130000
#06118:00000013
#06115:00000000000000000000000000130000
#06112:2600130013000013
#0621b:1300001300000000
#06212:0000000000130000
#06215:00000013
#06218:0000000000000013
#06216:1300001300000000
#06217:00130000
#0631b:1300001300001300
#06318:0013000013000000
#06315:00130000130000000000000013000000
#06312:00000013000013001300000000000000
#06317:0000000000130000
#06316:0000000000000013
#07812:0014001400000024
#07816:00140014
#07819:0000001400000000
#0781a:0000000000140024
#06015:00001616
#0601b:00000000000000000000130000130000
#06012:00002300230000000013000000001300
#06017:0023230000000000
#07512:00001400000000000000001400000000
#07516:00000000000014000000140014000014
#0751a:0000001400000000
#07518:0000000000000014
#07514:00000000000000000000000000140000
#0801b:0000001300130000
#08016:00001400000014001400140000140000
#08012:26141314
#0801a:1400000000000014
#08112:1400000000140000
#08115:00000014
#08117:0000000000000014
#08116:0014000000000000
#0811a:2400141400000000
#0821a:1400001400000000
#08217:0014000000000000
#08214:00140000
#08212:00000014000014000000130000001300
#0821b:00001313
#08216:0000000014141414
#08215:00140000000000000000000000000000
#08316:00000000000014000000140014000014
#08312:2400001400000000
#0831a:24000000000000000000001400000000
#08314:0000000000000014
#08318:00000000000000000000000000140000
#01716:00131300
#01712:2300001300001300
#01714:0000000000000013
#02418:00130000
#02415:0000001300000000
#0241b:0013000000000000
#02419:00000000000000000000001300000000
#02416:00000013
#02414:0000000000130000
#02412:0013
#02417:00000000000000000013000000000000
#02915:0000001313000000
#02918:00000000000000130000000000000000
#02912:0013000000130013
#02916:13000013
#02917:0013000000130000
#0291b:13130013
#02812:0000000000130013
#02818:00000000000000000000001300001300
#0281b:00130013
#02815:00000013
#02816:0000001300000000
#02814:0013
#02817:13
#02819:0013000000000000
#03017:0000001300131300
#03012:0000001300130000
#03016:0013140000000000
#0301b:0013000000000000
#0311b:0000000000130000
#03117:0000001300001300
#03112:00130000
#03116:0000000000000013
#03215:00130000
#03218:0000001300000000
#03212:0013000000000000
#03214:00000000000000000000001300000000
#03217:00000013
#03219:0000000000130000
#0321b:0013
#03216:00000000000000000013000000000000
#0891b:0000130000000013
#08912:0000000013000013
#08918:00000000000013000000001300000000
#08915:0000000000131300
#08914:0013000000000000
#00212:0000130000000013
#0021b:0000000013000013
#00215:00000000000013000000001300000000
#00218:0000000000131300
#00219:0013000000000000
#02716:0013001313000000
#0271b:13131313
#02714:0000000000000013
#02712:1300000000130000
#06918:00002300002300000000000000000000
#0691b:00000023000000000000000000000000
#06915:00000000230000230000000000000000
#06912:000000232c000000
#00357:63
#0035b:0023000000000000
#00352:00630000
#00356:0000002300000000
#0255b:6300000000230000
#02557:0023000053000000
#05352:53
#05358:16
#05457:53
#05452:1300005300000000
#0655b:0063
#06557:00000000000000000000002300000000
#06552:53
#06556:00000023000000000000000000000000
#07054:00000000000000000000000000000000000000000000000000000000000000000000000000000000000000000000000000000000000000000024000000240000
#07053:0000000000000000000000000000000000000000000000000000000054545454
#07052:00000000000000000000000000000000000000000000000000000000000000000000000000000000000000000000000000000000000000000000002400000024
#0705a:00000000000000000000000000000000000000000000000000000000000000000000000000000000000000000000000000000000000000000024000000240000
#07059:0000000000000000000000000000000000000000000000000000000054545454
#07058:00000000000000000000000000000000000000000000000000000000000000000000000000000000000000000000000000000000000000000000002400000024
#07153:5454545454545454000000000000000000000000000000000000000000000000
#07154:00240000002400000024000000240000000000000000000000000000000000000000000000000000000000000000000000000000000000000000000000000000
#07152:00000024000000240000002400000024000000000000000000000000000000000000000000000000000000000000000000000000000000000000000000000000
#07159:5454545454545454000000000000000000000000000000000000000000000000
#0715a:00240000002400000024000000240000000000000000000000000000000000000000000000000000000000000000000000000000000000000000000000000000
#07158:00000024000000240000002400000024000000000000000000000000000000000000000000000000000000000000000000000000000000000000000000000000
#03958:00000000000000000000000000000066
#0395a:0000000014000022
#03957:53
#0395b:00000023000000000000000000000000
#03956:0063
#03952:00000000000000000000002300000000
#07252:54
#07256:0024000000000000
#07258:16
#05752:0034
#06756:00230000002300000023000000000000
#06754:5353535353000000
#06752:00000023000000230000000000000000
#06757:0000000000000063
#00458:0016
#00952:0000001300000013
#0005b:00000043
#00052:00000033
#06852:004c
#06856:0000000000000053
#06952:003c
#0665b:0063
#06657:00000000000000000000002300000000
#06652:53
#06656:00000023000000000000000000000000
#08452:54
#08456:00000024000000000000002400000000
#0845a:0064
#08656:00240000002400000024000000000000
#08654:5454545454000000
#08652:00000024000000240000000000000000
#08552:54
#08556:00000024000000000000002400000000
#0855a:0064
#04052:00560000005600000000000000000000
#04054:22220000
#04058:00000066000000660000000000000000
#0405a:0022002200000000
#04053:0014
#00157:00630000
#0015b:0000002300000000
#00152:63
#00156:0023000000000000
#0055b:53
#00557:0023000000000000
#00552:00630000
#00556:0000002300000000
#0065a:00005444
#00657:0000000000240000
#00655:00005444
#00652:0000000000240000
#04552:1400000000140054
#0455a:6414
#04556:0024000000000000
#00852:0036
#00858:0046
#01352:0000001300000000
#0135b:0000000000000013
#0115b:0000001300000013
#04656:24
#03452:23
#03456:00000033
#03356:0000000018000063
#0335a:14
#03352:00160000
#03557:0000000000000053
#03558:00160000
#03552:1418
#0365b:23
#05852:0035
#05859:0045
#0585a:44
#09056:53
#09052:0023000000000000
#0905b:00530000
#09057:0000002300000000
#08856:00530000
#08852:0000002300000000
#0885b:53
#08857:0023000000000000
#09252:63
#09256:0023000000000000
#0925b:00530000
#09257:0000002300000000
#09352:00006434
#09355:0000000000240000
#09357:00006434
#0935a:0000000000240000
#09552:0036
#09558:0046
#05556:0000000000000013
#0555b:0000000000000063
#05657:0000006300000000
#0625b:1300006300000000
#06256:63
#0615b:63
#06152:16
#06458:13
#06452:53
#06456:0000005300000000
#0735a:64
#07356:0024000000000000
#07352:1400005400000000
#0745a:0000000000000064
#07456:0000000000000014
#07556:0000006400000000
#0805a:64
#08056:0024000000000000
#08052:16
#08152:54
#08156:0024000000000000
#0815a:1400006400000000
#08352:14
#0835a:14
#08356:0000005400000000
#09152:0016
#0165a:0014000014000000
#01652:0000001400000000
#01552:0000000000000014
#0155b:0000001300000000
#04852:3335
#0485a:00440000
#04858:00000046
#04755:00460036
#02157:0023000000000000
#0215b:63
#02152:0000000000530000
#02156:00000023
#0185b:13
#02052:13
#02952:0023000000000000
#02956:63
#0295b:00000023
#02957:0000000000530000
#02656:13
#02752:5300000000230000
#02756:0023000063000000
#02857:13
#07652:0036
#07758:4646
#07752:0036
#03257:00000043
#02456:00000033
#001320:13230000
#001360:0053000000000000
#001371:00132300
#0013b1:0000005300000000
#001321:0000000000000013
#002361:0023000000000000
#002381:0000132300000000
#002351:0000000013230000
#003371:13230000
#0033b1:0053000000000000
#003320:00132300
#003360:0000005300000000
#0053b0:13230000
#005370:0053000000000000
#005321:00132300
#005361:0000005300000000
#005391:0000000000000013
#006391:0023000000000000
#006321:0000132300000000
#006370:0000132300000000
#0063a0:00001424
#006370:0000000000540000
#006351:00001424
#006321:0000000000540000
#008381:0000001326000000
#008350:0000001300000000
#008320:0026
#012360:0000000000130000
#012340:00000000000000000000003300000000
#012320:00000023
#017370:13
#0173b0:00230000
#0173b0:0013
#017370:00000023
#018360:13
#018320:00230000
#018370:0000001300000000
#0183b0:0000000000230000
#019360:13
#019320:00230000
#019320:0013
#019360:00000023
#020370:13
#0203b0:00230000
#020360:0000001300000000
#020320:0000000000230000
#0213b0:13230000
#021370:0053000000000000
#021320:0000000000130023
#021360:00000053
#0223b0:00000013
#023370:23
#023321:13
#023361:00230000
#0233b1:0000001300000000
#023371:0000000000230000
#023321:0000000000000013
#024361:0023000000000000
#0253b1:13230000
#025371:0053000000000000
#025371:00001323
#0253b1:0000000000530000
#0263b1:13
#026371:00230000
#026321:0000001300000000
#026361:0000000000230000
#0263b0:0000000000130000
#026370:0000000000000023
#027320:13230000
#027360:0053000000000000
#027360:00001323
#027320:0000000000530000
#028320:13
#028360:00230000
#0283b0:0000001300000000
#028370:0000000000230000
#029360:13230000
#029320:0053000000000000
#029370:0000000000130023
#0293b0:00000053
#030320:00000013
#031360:23
#0313b1:13
#031371:00230000
#031321:0000001300000000
#031361:0000000000230000
#0313b1:0000000000000013
#032371:0023000000000000
#033361:0000000000000013
#034321:53
#034361:0023000000000000
#035371:0000000000000013
#0363b1:53
#036371:0023000000000000
#037361:1222000000000000
#037381:0000122200000000
#039371:1300002300000000
#0393b1:00000053000000000000000000000000
#039361:0000000013000023
#039321:00000000000000000000005300000000
#0393a0:0000000000000012
#039380:00000000000000000000000000000056
#0403a0:22
#040341:1222000000000000
#040321:00560000000000000000000000000000
#0403a0:0012220000000000
#040380:00000056000000000000000000000000
#040341:0000122200000000
#040321:00000000005600000000000000000000
#0403a0:0000001222000000
#040380:00000000000000560000000000000000
#041380:13230000
#0413b0:0000000000000013
#042360:0023000000000000
#043350:13230000
#0453a0:14240000
#045360:0054000000000000
#045320:0000000000000014
#046360:54
#046320:0024000000000000
#051380:0000000000000013
#052390:23
#051351:0000000000000013
#052341:23
#053321:13
#053361:00230000
#054371:13
#0543b1:00230000
#054321:0000001300000000
#054361:0000000000230000
#0553b1:0000000000000013
#056361:0023000000000000
#056371:0000001300000000
#056321:0000000000230000
#0613b1:13
#061371:00230000
#062361:13
#062321:00230000
#0623b1:0000001300000000
#062371:0000000000230000
#064321:13
#064371:00230000
#064361:0000001300000000
#0643b1:0000000000230000
#065321:1300002300000000
#065361:00000053000000000000000000000000
#0653b1:0000000013000023
#065371:00000000000000000000005300000000
#066321:1300002300000000
#066361:00000053000000000000000000000000
#0663b1:0000000013000023
#066371:00000000000000000000005300000000
#067341:1353535353230000
#067361:00530000005300000053000000000000
#067321:00000053000000530000000000000000
#067371:0000000000000013
#068321:00230000000000000000000000000000
#068361:0000000000000013
#0693b1:00230000000000000000000000000000
#070331:0000000000000000000000000000000000000000000000000000000014545454
#070341:00000000000000000000000000000000000000000000000000000000000000000000000000000000000000000000000000000000000000000054000000540000
#070321:00000000000000000000000000000000000000000000000000000000000000000000000000000000000000000000000000000000000000000000005400000054
#071331:5454545454545454240000000000000000000000000000000000000000000000
#071341:00540000005400000054000000540000000000000000000000000000000000000000000000000000000000000000000000000000000000000000000000000000
#071321:00000054000000540000005400000054000000000000000000000000000000000000000000000000000000000000000000000000000000000000000000000000
#070390:0000000000000000000000000000000000000000000000000000000014545454
#0703a0:00000000000000000000000000000000000000000000000000000000000000000000000000000000000000000000000000000000000000000054000000540000
#070380:00000000000000000000000000000000000000000000000000000000000000000000000000000000000000000000000000000000000000000000005400000054
#071390:5454545454545454240000000000000000000000000000000000000000000000
#0713a0:00540000005400000054000000540000000000000000000000000000000000000000000000000000000000000000000000000000000000000000000000000000
#071380:00000054000000540000005400000054000000000000000000000000000000000000000000000000000000000000000000000000000000000000000000000000
#071320:00000000000000001424000000000000
#0713a1:00000000000000000014240000000000
#0713a1:00000000000000000000000014240000
#071320:00000000000000000000000000142400
#072320:14240000
#072360:0054000000000000
#0733a0:14240000
#073360:0054000000000000
#073320:0000001400000000
#073360:0000000000240000
#0743a0:0000000000000014
#075360:0024000000000000
#075360:0000001400000000
#075320:0000000000240000
#0793a0:0000000014240000
#079320:0000000000001424
#0803a0:14240000
#080360:0054000000000000
#081320:14240000
#081360:0054000000000000
#0813a0:0000001400000000
#081360:0000000000240000
#083360:0000001400000000
#0833a0:0000000000240000
#084320:1400002400000000
#084360:00000054000000000000000000000000
#0843a0:0000000014000024
#084360:00000000000000000000005400000000
#085320:1400002400000000
#085360:00000054000000000000000000000000
#0853a0:0000000014000024
#085360:00000000000000000000005400000000
#086340:1454545454240000
#086360:00540000005400000054000000000000
#086320:00000054000000540000000000000000
#087350:0013
#087320:0000000000230000
#0873b0:00000013
#087380:0000000000000023
#0883b0:13230000
#088370:0053000000000000
#088361:00132300
#088321:0000005300000000
#0883b1:0000000000000013
#089371:0023000000000000
#089351:0000132300000000
#089381:0000000013230000
#090361:13230000
#090321:0053000000000000
#0903b0:00132300
#090370:0000005300000000
#092320:13230000
#092360:0053000000000000
#0923b1:00132300
#092371:0000005300000000
#092341:0000000000000013
#093341:0023000000000000
#0933b1:0000132300000000
#093360:0000132300000000
#093320:00001424
#093350:0000000000540000
#093371:00001424
#0933a1:0000000000540000
#095351:0000001300000000
#095321:0026
#095380:0000001326000000
