This file was generated by Ched 2.6.4.0.
#TITLE ""
#ARTIST ""
#DESIGNER ""
#DIFFICULTY 0
#PLAYLEVEL
#SONGID ""
#WAVE ""
#WAVEOFFSET 0
#JACKET ""
#REQUEST "ticks_per_beat 480"
#00002: 4
#BPM01: 210
#00008: 01
#TIL00: ""
#HISPEED 00
#MEASUREHS 00
#00018:1414
#00014:00140014
#00118:14141400
#00214:14141400
#00318:14141400
#00414:14141400
#0051a:1414
#00514:00140014
#00618:1414
#00612:00140014
#00812:0014
#0081a:0014
#00814:00140000
#00818:14
#0091a:1414
#00914:00140014
#00910:41
#01012:00140000
#01018:1414
#01112:1414
#01118:00140014
#0121a:00140000
#01214:1414
#0131a:14
#01312:00140000
#01314:00000014
#01318:0014
#01412:00140000
#01418:0014
#0141a:14
#0171a:1414
#01714:00140014
#01912:1414
#01918:00140014
#0231a:14141400
#02412:14141400
#0251a:14
#02514:00140000
#02518:0014
#02512:00000014
#02510:41
#02712:14
#02718:00140000
#02714:0014
#0271a:00000014
#0311a:14
#03119:00140000
#03118:0014
#03212:14
#03213:00140000
#03214:0014
#0331a:14
#03314:00140000
#03318:0014
#03312:00000014
#03414:00140000
#03418:14
#0341a:0014
#03919:14141400
#03913:14141400
#03512:14
#03518:00140000
#03514:0014
#0351a:00000014
#03618:00140000
#03614:14
#03612:0014
#0411a:14
#0411f:11
#04118:0034
#04119:00340000
#04117:00000034
#04217:14
#0421a:0034
#04219:00340000
#0451a:14
#04518:0000341434000000
#04612:14
#04614:0000341434000000
#0471a:14240000
#04714:00140000
#04712:00001424
#04718:00000014
#04814:1414
#04818:00140014
#0481a:2424
#04812:00240024
#0521a:00001414
#05212:0014
#05218:14
#05314:0014
#0531a:00000014
#05318:00140000
#05312:24
#0531f:21
#05514:00001414
#05518:0000000000140014
#05510:41
#05614:14
#0561a:0014
#05616:00000014
#05412:14
#05712:14
#05914:1414
#05918:00140014
#06318:00001414
#06314:0000000000140014
#06418:14
#06412:0014
#06416:00000014
#06712:14
#0671a:14
#07012:1400000024000014
#0701a:00140000
#07018:2400000024000014
#07014:00240000
#0711a:0014
#07116:00000014
#07112:0014
#07212:2414
#07216:00000014
#0721a:00140000
#07210:41
#07412:00001414
#07418:0000000000140014
#0751a:0014
#07516:00000014
#07512:24
#07612:14000014
#0761a:00140000
#07814:1414
#07818:00140014
#0821a:00001414
#08214:0000000000140014
#08312:0014
#08316:00000014
#0831a:24
#07718:00160000
#0841a:14
#08410:41
#08512:14
#08718:0016
#08812:14
#08818:14
#08814:0014
#08819:00140000
#0881a:0014
#08813:00140000
#08912:14
#08916:00140000
#0891a:0014
#09014:14
#0901a:14
#09012:0014
#09019:00140000
#09018:0014
#09013:00140000
#0911a:14
#09116:00140000
#09112:0014
#0921a:14
#09212:00140000
#09218:0014
#09214:00000014
#09318:14
#09312:00140000
#0931a:00000014
#09316:0014
#00714:00140014
#0071a:1414
#0951a:0014
#09512:0014
#09518:00140000
#09514:14
#09412:1414
#09418:00140014
#01512:14
#0151a:00140000
#01518:00000014
#01514:0014
#0161a:00140000
#01614:0014
#01612:14
#0221a:0014
#02212:0014
#0211a:14
#02117:0014
#03012:0014
#0301a:0014
#02912:14
#02915:0014
#04312:14
#04314:0034
#04313:00340000
#04315:00000034
#04415:14
#04412:0034
#04413:00340000
#05118:14
#05114:0014
#06012:00001414
#0601a:0014
#06118:0014
#06112:00000014
#06114:00140000
#0611a:24
#0621a:14
#07912:0014
#07916:00000014
#0791a:0014
#0801a:2414
#08016:00000014
#08012:00140000
#06818:0000000000000026
#04018:2424
#04012:2424
#04014:00240000
#0401a:00240000
#0731a:24
#08112:24
#08612:24
#0861a:24
#03710:41
#00054:00000014
#00652:00000014
#04257:54
#0415a:64
#0455a:64
#04558:0000002400000000
#04652:54
#04654:0000002400000000
#05452:14
#05654:14
#06458:14
#0675a:14
#06752:14
#06852:0016
#06958:0016
#07052:0000000000000054
#07058:0000000000000054
#07252:14
#07652:00000054
#0765a:00640000
#07758:00660000
#0845a:64
#08552:54
#0935a:00000014
#02157:0024
#0215a:64
#02952:54
#02955:0024
#04352:54
#04455:64
#08758:0066
#05352:14
#0625a:14
#0615a:14
#0805a:14
#0735a:14
#07552:14
#08152:14
#0835a:14
#08652:14
#0865a:14
#0183a0:14342400
#020320:14342400
#0213a0:14
#021370:0054
#0223a0:24
#0263a0:14
#026390:00340000
#026380:0024
#028320:14
#028330:00340000
#028340:0024
#029320:14
#029350:0054
#030320:24
#0373a0:1424
#038320:1424
#0413a0:14
#041390:00340000
#041380:0034
#041370:00000034
#042370:34
#042390:00340000
#0423a0:00003424
#043320:14
#043330:00340000
#043340:0034
#043350:00000034
#044350:34
#044330:00340000
#044320:00003424
#0453a0:14000024
#045380:0000345434000000
#046320:14000024
#046340:0000345434000000
#0543a0:00001424
#054341:00001424
#055321:14240000
#055380:14240000
#0573a0:00140000
#057380:0024
#057320:00000014
#058340:24
#058380:00160000
#058350:0026
#0603a0:14240000
#060321:14240000
#062321:00001424
#062380:00001424
#0633a0:14240000
#063341:14240000
#0653a1:14
#065361:0024
#066321:14
#066361:0024
#067321:0000000000000016
#068321:0036363626000000
#068381:0000000000000016
#069381:0036363626000000
#070321:0000000014343434
#071341:00240000
#070380:0000000014343434
#0713a0:00240000
#0733a0:0014
#073380:00000024
#073341:0014
#073321:00000024
#074321:14
#074341:00240000
#074380:14
#0743a0:00240000
#0763a0:00140000
#076380:0024
#076320:00000014
#077340:24
#077380:00160000
#077350:0026
#0793a0:14
#079380:00240000
#079321:14
#079341:00240000
#081321:0014
#081341:00000024
#081380:0014
#0813a0:00000024
#0823a0:14
#082380:00240000
#082341:14
#082321:00240000
#0843a1:14
#084361:0024
#085321:14
#085361:0024
#086381:0000000000000016
#087381:0036363636000000
#087351:00000026
