This file was generated by Ched 2.7.0.0.
#TITLE ""
#ARTIST ""
#DESIGNER ""
#DIFFICULTY 0
#PLAYLEVEL
#SONGID ""
#WAVE ""
#WAVEOFFSET 0
#JACKET ""
#REQUEST "ticks_per_beat 480"
#00002: 4
#BPM01: 128
#00008: 01
#TIL00: ""
#HISPEED 00
#MEASUREHS 00
#0081a:14
#0091a:14
#01218:14
#02618:2616
#02610:41
#03012:1616
#03812:16
#03818:0016
#03810:41
#0421a:14
#0431a:14
#05518:14
#05512:0014
#05714:14
#0571a:0014
#0671a:14
#06812:14
#01014:14
#01114:14
#0041a:14
#00410:41
#00514:14
#01412:14
#01512:14
#02818:16
#02812:0016
#03212:16
#03218:0016
#03412:0016
#03418:26
#04412:14
#04512:14
#0461a:14
#04614:0014
#04812:14
#04818:0014
#06318:16
#06312:0016
#05912:0016
#05918:26
#0591f:21
#06112:16
#06118:0016
#07014:14
#06618:16
#06612:0016
#00618:14
#00712:14
#01318:14
#02513:0014
#0471a:14
#06918:14
#00019:14
#00213:14
#0511f:11
#01610:41
#06010:41
#04910:41
#016380:14
#017380:24
#018320:14
#019320:24
#0203a0:14
#0213a0:24
#022340:14
#023340:24
#024380:14
#025380:24
#027320:1626
#029380:1626
#031380:1626
#033320:1626
#035380:1626
#036320:1626
#037380:1626
#039320:1626
#040380:1626
#041320:1626
#049320:1434
#050320:3424
#051380:14
#0523a0:0024
#053340:14
#054320:0024
#0563a0:1424
#058320:1424
#060380:1626
#062320:1626
#064380:1626
#065320:1626
#071380:14000024
