This file was generated by Ched 2.7.0.0.
#TITLE ""
#ARTIST ""
#DESIGNER ""
#DIFFICULTY 0
#PLAYLEVEL
#SONGID ""
#WAVE ""
#WAVEOFFSET 0
#JACKET ""
#REQUEST "ticks_per_beat 480"
#00002: 4
#BPM01: 128
#00008: 01
#TIL00: ""
#HISPEED 00
#MEASUREHS 00
#0031b:0013131313000000
#00314:0000000000130000
#00317:00000013
#0031a:0000000000000013
#00415:0013130000000000
#00418:00000013000000000000000000000000
#0041b:2300001313000013
#00417:00000013
#00416:0000000000000013
#00412:2300001300000000
#00410:41
#00818:2314
#00816:0000140000130013
#0081a:00000014
#00812:0013000000000000
#00814:0000001300000000
#00918:14
#00914:0013000000000000
#00916:00140000
#00912:0000001300000000
#01218:13
#01215:00130000
#0121b:0000000000000013
#01212:0013000000000000
#01214:0000000000130000
#01219:0000001300000000
#0141b:0013000013000000
#01415:00131300
#01418:0000001300001300
#01412:00000013
#01516:14140000
#01518:0000000013130000
#01515:00000000000000000013000000000000
#0151b:13000013
#01512:00130013
#0161b:2313000000000000
#01615:00000013
#01618:0000000000000013
#01612:23
#01610:41
#01718:0013001300000000
#01712:1300130000000013
#01815:1300000013000013
#01818:0013001300000000
#0181b:00130013
#01812:0000000000130000
#0191b:1300000013000013
#01912:00001300000013000000001300000000
#01918:00130000
#01915:0000000013000013
#01919:00000000000000000000001300000000
#02018:1300130000130000
#02015:0013001300001300
#0201b:0013
#02012:0000000000000013
#02118:1300130013000013
#02115:00001300000000000000001300000013
#0211b:00000000000013000000001300000000
#02112:0013
#02218:0000130000130000
#02215:00000013
#02212:0013000000000000
#0221b:13
#02312:0013000000001300
#02514:0013
#02515:0000000000130000
#02519:00000000000000000000001300000000
#0251a:0000000000000014
#02516:00000013
#0251b:0000131300000000
#02512:0000001300000014
#02518:00000000000000000013000000000000
#02615:2300000000000013
#02618:00000000000013000000000000000013
#02612:0013000000000000
#0261b:00130000
#02614:0024
#0261a:0000000000240000
#02610:41
#02718:0013000000002300
#02719:00130000
#0271a:0000001300000000
#0271b:0000000013000013
#02715:0000000000230000
#0281b:0000130000130000
#02812:1300001300000013
#02818:0013
#02815:00000013
#02915:1300001300230000
#0291b:13130000
#02918:0013000000000000
#02912:0000130013000014
#0291a:0000000000000014
#0371a:0000000000000014
#03718:1300001300131300
#03712:1300130000000014
#03715:0013000000000000
#0371b:00131300
#03912:0013001300000013
#03918:00000000000000000000230000000013
#03915:00131323
#0401b:0013001300000013
#04012:00000000000000000000000000000013
#04018:00131323
#04015:0000000000230000
#0411b:0000000000000013
#04212:00130000
#04215:0013000000001300
#04218:13
#0421b:0000000000000013
#04318:13
#04315:0013000013000013
#04312:0000000000131500
#0431b:00000013
#04319:0000000000150000
#04612:13130000
#04615:0000001300000000
#0461b:13130000
#04618:0013000000000013
#04619:0000000000330000
#04614:0000000000330000
#04814:13
#04816:0013000000000000
#04813:00130000
#04817:0000001300000000
#04812:00001313
#0481b:00001313
#04819:13
#0481a:00130000
#04818:0000000000000013
#05015:0000000000000013
#0501b:0023
#05117:0000001300000000
#05112:23130000
#0511f:11
#05215:0013000000000000
#05218:00130000
#05212:0000001300000000
#0521b:0000000013000013
#05315:0013000000000000
#05318:13130000
#05312:0000001300000013
#0531b:0013
#05415:13131300
#05418:0013000000130000
#05412:0000001300000000
#0541b:00000013
#05512:13131313
#05512:0013
#05518:0000000000000013
#0551b:00130013
#05612:13131313
#05617:00130000
#05619:0000001300000000
#0561b:0013
#05615:0000000000000013
#0571b:13131313
#05716:00130000
#05714:0000001300000000
#05712:0013
#05715:0000000000000013
#07113:0013000000000000
#0711a:00130000
#07117:0013
#07114:0000230000130000
#07118:13
#07115:0000001300000000
#07112:2323
#0711b:0000002300002300
#07119:0023000000230000
#07116:00000023
#0071b:0013001300000000
#00718:00000000130000000000003300000000
#00712:00000000000000130000000000000033
#0071a:00000000000000000033000000000000
#00719:0000000000330000
#00714:00000000000000000000000000330000
#00713:0000000000000033
#00618:0013130000000013
#00615:00000013000000000000000000000000
#00612:1300001313000000
#00616:00000013
#0061b:0000001300000000
#01014:0014
#01017:0000000000130013
#01012:00000014
#0101b:0013000000000000
#01016:00140000
#01019:0000001300000000
#01114:14
#01119:0013000000000000
#01116:00140000
#0111b:0000001300000013
#03012:0000001324000013
#0301b:23000000000000000000000000000013
#03015:00130000
#03018:0013000000240000
#0311b:0013000000000013
#0311a:00130000
#03119:0000001300000000
#03118:00001323
#03115:0000000000230000
#0331a:0000000000000014
#03312:0000130013000014
#03315:1300001300002300
#0331b:1300130000230000
#03318:0013000013000000
#03212:0000000013000013
#03215:1300001300002300
#03218:0013000000230000
#0321b:00131300
#0381b:0000001300000013
#03815:00001300000000000000000000000013
#03818:00130000
#03812:2324
#0381a:0000000000240000
#03816:00000024
#03810:41
#03612:0000130000130000
#0361b:1300001300000013
#03615:0013
#03618:00000013
#03418:2300000024000013
#03415:00000000000013000000000000000013
#0341b:0013000000000000
#03412:0000130000240000
#03515:0013000000002300
#03514:00130000
#03513:0000001300000000
#03512:0000000013000013
#03518:0000000000230000
#00019:0000121212000000
#00015:00000000001200120000000000000000
#00012:2300000000130000
#0001b:2300000000130000
#00119:0000000012121212
#00115:00000000000000000012001200120000
#00215:0000121212000000
#00219:00000000001200120000000000000000
#0021b:2300000000130013
#00212:2300000000130000
#06212:1300001300230014
#0621b:13130000
#06218:0013000000000000
#06215:00131300
#0621a:0000000000000014
#06418:0013001300000013
#06412:00000000000000000000000000000013
#0641b:00131323
#06415:0000000000230000
#06515:0013001300000013
#0651b:00000000000000000000000000000013
#06512:00131323
#06518:0000000000230000
#05812:1300000000000014
#0581a:0000130000000014
#0581b:13
#05817:0013000000000000
#05813:00130000
#05816:0000001300000000
#05814:0013
#05819:0023
#06315:0000001300000013
#0631b:23000000000000000000000000000013
#06312:0000130000240000
#06318:0013000000000000
#0631a:0024
#06316:00000024
#0611b:00131300
#06112:0000001300001300
#06118:0000000000130000
#06115:0000000000000013
#06116:13
#05915:2300000000000013
#05918:00000000130000000000000000000013
#05912:0013000000000000
#0591b:0000001300000000
#05914:0024
#0591a:0000000000240000
#0591f:21
#0601b:0013000000002300
#0601a:00130000
#06019:0000001300000000
#06018:0000000013000013
#06012:13
#06015:0000000000230000
#06010:41
#04418:1300000000130000
#04415:0000000000000013
#0441b:0013000000000000
#04412:00000013
#0451b:0013000000130000
#04512:0000000000151300
#04518:1313
#04515:0000000000000013
#04519:00000015
#04715:0000000000130000
#04717:0000130000000013
#04716:13
#04719:00000000000013000033000000000000
#04712:00131313
#04714:0013000000000000
#0471b:13000013
#04912:13
#04915:0013000000130000
#04918:0000001300000013
#04910:41
#01315:13
#01319:0013000000000000
#01313:00130000
#06718:0013000013000013
#06715:00000013000013000000000000000000
#06712:2300130000000013
#0671b:0000001300001300
#0691b:1300130000000013
#06915:0013000013000000
#06918:00000013000013000000000000000000
#06912:0000001300001300
#07018:0000001300000013
#0701b:0013
#0701a:0000000000130000
#07019:00000013
#07015:00000000000000000033000000000000
#07014:0000000000330000
#07013:00000000000000000000003300000000
#07012:00000000000000000000000033330000
#0241b:00230023
#00513:00000000000000000033000000000000
#00514:0000000000330000
#00515:00000000000000000000003300000000
#00519:00000000000000000000000000330000
#0051a:0000000000000033
#0051b:00000000000000000000000000000033
#06814:00000000000000000000000000330000
#06813:0000000000000033
#06812:00000000000000000000000000000033
#0681a:00000000000000000033000000000000
#06819:0000000000330000
#06818:00000000000000000000003300000000
#01252:00000017
#01254:0000000000630000
#01259:0000005300000000
#01257:0017
#01556:14140000
#0155b:13000013
#01552:00130013
#0235b:0013000000001300
#02352:00000013
#04852:0013
#0485b:0013
#0525b:0013
#02955:00000013
#03258:0053000000000000
#0325b:00230000
#02654:0014
#0265a:0000000000140000
#03052:0014
#03058:0000000000140000
#03458:0014
#03452:0000000000140000
#03852:0014
#0385a:0000000000140000
#03856:00000014
#05954:0014
#0595a:0000000000140000
#0635a:0014
#06352:0000000000140000
#06356:00000014
#06052:53
#06058:0013
#06252:00000013
#05557:0013
#0555b:00630000
#0565b:0013
#05752:0013
#05852:13
#05859:0013
#0505b:0013
#01455:0013
#01458:00000013
#0535b:0013
#0545b:00000013
#02852:53
#0365b:63
#04359:0000000000150000
#04352:00000015
#04552:0000000000150000
#04559:00000015
#06156:63
#00658:0000000000000013
#00652:13
#0695b:1300000000000013
#0275b:0013
#03158:0013
#03552:0013
#03955:0013
#04058:0013
#04155:0013
#0415b:0013
#0645b:0013
#06552:0013
#06658:0013
#06655:0013
#01955:0000000013000013
#01959:00000000000000000000001300000000
#02158:0013
#02155:00000000000000000000001300000000
#0225b:13
#00452:13
#0045b:13
#06752:13
#03758:00000013
#000320:0000000000000013
#001320:00230000
#0003b1:0000000000000013
#0013b1:00230000
#002321:0000000000000013
#003321:0023
#004321:00001323
#0053b1:0013000000000000
#0053a1:00000033000000000000000000000000
#005391:00330000
#005381:00000000003300000000000000000000
#005371:0000002300000000
#005321:0013
#005331:00000000000000000033000000000000
#005341:0000000000330000
#005351:00000000000000000000003323000000
#005380:00000013
#005390:00000000000000000000000000330000
#0053a0:0000000000000033
#0053b0:00000000000000000000000000000033
#0063b0:23
#0063b0:00001323
#006350:0000000000000013
#007320:0000002300000000
#0073b0:0013
#0073a0:00000000000000000033000000000000
#007390:0000000000330000
#007380:00000000000000000000003323000000
#007351:00000013
#007341:00000000000000000000000000330000
#007331:0000000000000033
#007321:00000000000000000000000000000033
#008321:23
#0093a1:0000001300330023
#009371:00003333
#009320:0000000000000013
#010360:0023000000000000
#011330:0000001300330023
#011360:00003333
#012390:0000001300000000
#012370:0027
#012340:0000000000130000
#012320:00000027
#013370:0000001300000000
#0133b0:0000000000230000
#013351:0000000000132300
#013380:0000000000001323
#013351:0000000000000013
#014321:0023000000000000
#016361:00130000
#016321:0023
#016370:0013
#0163b0:00000023
#017320:00001323
#017350:0000000000330000
#0173b1:0000000000130023
#017381:00000033
#022321:0000001300000000
#022351:0000000000230000
#022381:0000000000000013
#0233b1:0023000000000000
#023321:00130000
#023351:0000005323000000
#023380:0013
#0233b0:0000000000532300
#024320:13
#024360:00230000
#0243b1:00130000
#024371:0023
#024320:0013
#024360:00000023
#0243b1:00000013
#025371:23
#025320:13
#025360:00230000
#0263b0:13
#026380:0023000000000000
#026350:00130000
#026320:0000002300000000
#027320:13
#027330:0033000000000000
#027340:00330000
#027350:0000003300000000
#027360:0023
#028320:13
#028360:00230000
#029380:0013
#0293b0:00000023
#029351:0000000000132300
#030351:13
#030321:0023000000000000
#0303b1:00130000
#030381:0000002300000000
#031361:13
#031351:0033000000000000
#031341:00330000
#031331:0000003300000000
#031321:0023
#032381:0013002300000000
#0323b1:00530000
#034321:13
#034351:0023000000000000
#034381:00130000
#0343b1:0000002300000000
#0353b1:13
#0353a1:0033000000000000
#035391:00330000
#035381:0000003300000000
#035371:0023
#0363b1:13
#036371:00230000
#037351:0013
#037321:00000023
#038381:13
#0383b1:0023000000000000
#038321:00130000
#038351:0000002300000000
#0393b1:13332300
#039381:0033003300000000
#040321:13332300
#040351:0033003300000000
#0413b1:13332300
#041381:0033003300000000
#041320:0013003300000000
#041350:00332300
#042380:0000001323000000
#042351:0000000013230000
#042380:0000000000132300
#043320:0000132300000000
#043381:0000001323000000
#044351:0000132300000000
#044380:0000001323000000
#044351:0000000013230000
#0453b1:0000132300000000
#045350:0000001323000000
#0463b0:0013
#046390:0000000000330000
#046380:00000023
#046321:0013
#046341:0000000000330000
#046351:00000023
#0473b1:0013
#047391:00000000000000000033000000000000
#047381:0000000000230000
#0493b1:13230000
#049320:00132300
#0493b1:00001323
#049320:00000013
#050320:23
#0503b1:13
#050381:0023000000000000
#050320:0013000000000000
#050350:00230000
#050381:00130000
#0503b1:0000002300000000
#050350:0000001300000000
#050320:0023
#0513b0:13
#051370:00230000
#051360:0000000000143424
#0553b0:00130000
#055370:0023
#0563b0:1323000000000000
#057320:1323000000000000
#0593b0:13
#059380:0023000000000000
#059320:00130000
#059350:0000002300000000
#060320:1323
#060350:0033000000000000
#060340:00330000
#060330:0000003300000000
#061360:13
#061320:00230000
#0623b0:0013
#062380:00000023
#062321:0000000000132300
#063351:13
#063321:0023000000000000
#063381:00130000
#0633b1:0000002300000000
#064351:13332300
#064321:0033003300000000
#065381:13332300
#0653b1:0033003300000000
#066351:13332300
#066321:0033003300000000
#0663b0:0013003300000000
#066380:00332300
#066380:00000013
#0673b0:23
#067320:0013
#067350:00000023
#068320:0013000000000000
#068330:00000033000000000000000000000000
#068340:00330000
#068350:00000000003300000000000000000000
#068360:0000002300000000
#0683b0:0013
#0683a0:00000000000000000033000000000000
#068390:0000000000330000
#068380:00000000000000000000003323000000
#068351:00000013
#068341:00000000000000000000000000330000
#068331:0000000000000033
#068321:00000000000000000000000000000033
#069321:23
#0693b1:0013
#069381:00000023
#069351:0000000000000013
#070321:0000002300000000
#070351:00000000000000001333000000000000
#070341:0000000000330000
#070331:00000000000000000000003300000000
#070321:00000000000000000000000033332300
