This file was generated by Ched 2.7.0.0.
#TITLE ""
#ARTIST ""
#DESIGNER ""
#DIFFICULTY 0
#PLAYLEVEL
#SONGID ""
#WAVE ""
#WAVEOFFSET 0
#JACKET ""
#REQUEST "ticks_per_beat 480"
#00002: 4
#BPM01: 128
#00008: 01
#TIL00: ""
#HISPEED 00
#MEASUREHS 00
#0001b:2300000000130000
#00012:2300000000130000
#00018:00131300
#00015:0000001300000000
#00118:00001313
#00115:0000000000130000
#00212:2300000000130000
#0021b:2300000000130000
#00215:00131300
#00218:0000001300000000
#00418:00000013000013000000000000000000
#0041b:2300000000000013
#00415:0013130000000000
#00410:41
#00612:13
#00615:00000013000013000000000000000000
#00618:0013130000000000
#0051b:0013
#00518:00000000000000000000331333000000
#00519:00000000000000000033000000330000
#00514:00000033000000000000000000000000
#00513:00330000
#00512:00000000003300000000000000000000
#0081b:0013000000000000
#00812:0000001300130000
#00818:00001313
#00815:2300000000000013
#0091b:13130000
#00915:0013000000000000
#00918:0000000000000013
#01012:0013000000000000
#0101b:0000001300130000
#01015:00001313
#01018:0000000000000013
#01112:13130000
#01118:0013000000000000
#01115:0000000000000013
#01218:13130000
#01215:0013000000000000
#01212:0000001300130013
#0121b:00001313
#01318:13
#01314:0013000000000000
#0131a:00130000
#0131b:0000000000000013
#01415:0013001300000000
#01418:00130000
#0141b:0013
#01412:00000013
#01518:1413
#01514:00140000
#01515:0000000000130000
#0151b:00000013
#01512:00000013
#01615:0013000000000013
#0161b:00130000
#01618:2313
#01610:41
#0171b:1300000000000013
#01712:0013000000000000
#01718:00130000
#01815:13130013
#0181b:0013000000000013
#01818:0000001300130000
#01812:0013
#01915:13130000
#01918:0013000000000000
#01912:0000001300000013
#02018:13130013
#02012:0013000000000013
#02015:0000001300130000
#0201b:0013
#02118:13130000
#02115:0013000000000000
#0211b:0000001300000000
#0221b:0013000000000000
#02218:00130000
#02215:0000001300001300
#02212:0000000000130000
#02312:00140000
#02316:0014
#0231a:00000014
#02518:0000001300000013
#02512:0000001300000000
#0251b:0013
#02515:0013
#02615:2300000000000013
#02618:00000000000000000000240000000013
#02612:0024
#02610:41
#02715:13
#0271a:0014001400000000
#02712:00141400
#02718:0000000000000013
#0281b:0000001300000013
#02812:0013
#02818:0000000000130000
#02815:00000013
#02915:1313000000000000
#02918:0000131300000013
#02912:0013
#0291b:0013
#03015:0000000000000013
#03018:00000000000000000000000000000013
#03012:23
#03014:0024
#0301a:0000000000240000
#03115:13
#03118:0014001400000013
#03112:00141400
#03215:1313
#0321b:0000000000000013
#03316:13
#03319:0013000000000000
#03314:00130000
#03317:0000001300000000
#03312:0013
#0331b:0013
#03315:0000000000000013
#03418:2300000000000013
#03415:00000000000000000000000000000013
#0341a:0024
#03414:0000000000240000
#03518:13
#03512:0014001400000000
#0351a:00141400
#03515:0000000000000013
#03612:0000001300000013
#0361b:0013
#03615:0000000000130000
#03618:00000013
#03718:1313000000000000
#03715:0000131300000013
#0371b:0013
#03712:0013
#03815:0000000000000013
#03818:00000000000000002400000000000013
#03812:0000000000240000
#0381a:00000024
#0381b:23
#03810:41
#03915:13000000000000000000000000000013
#0391a:0014001400000000
#03912:00141400
#03918:0000000000000013
#04018:13
#04012:0014001400000013
#0401b:00000000000000000000000000000013
#0401a:00141400
#04112:1300001400000000
#0411a:0014000014000000
#04116:00140000
#0411b:0000000000000013
#06318:0000000000000013
#06315:23000000000000000000000000000013
#06314:0024
#0631a:0000000000240000
#06312:00000024
#06418:13000000140000000000000000000013
#06412:0014000000000000
#0641a:0014
#06414:0000001400000000
#06415:0000000000000013
#06515:13
#0651a:0014000000000000
#06512:00000000000000001400000000000013
#06514:00140000
#06518:0000001400000000
#0651b:0000000000000013
#0661b:13
#06612:0014000014000000
#06616:00140000
#0661a:0000001400000000
#05918:0000000000000013
#05915:00000000000000000000000000000013
#0591b:23
#0591a:0024
#05912:0000000000240000
#0591f:21
#06018:13140000
#06014:0014000000000000
#06012:0000001400000000
#0601a:0014
#06015:0000000000000013
#06010:41
#04218:13
#04215:0013000000000013
#04212:00130000
#04318:1300000000000013
#0431b:0013000000000000
#04314:0000003300000000
#04415:1300000000000013
#04412:0013000000001300
#04518:13
#0451b:0013000000000013
#04513:0000003300000000
#04612:13130000
#0461b:0013001300000013
#04615:00001313
#04618:0000000000130000
#04712:13
#04719:0013000000000000
#04714:00130000
#04715:0000000000000013
#04818:1300000000000013
#04814:0013000000000000
#04819:00130000
#04813:0000001300000000
#0481a:0013
#04915:13130000
#04918:0013001400140015
#04914:00001414
#04910:41
#05013:15150000
#05018:0015001600000000
#0501b:0000000000000013
#05012:0026
#05118:0000001300001300
#05115:0000000000130013
#0511f:11
#0521b:0013001300000013
#05212:00131300
#05315:1313
#05318:0013000000000000
#05312:00130000
#0531b:0000001300000013
#05415:1300000000130000
#05419:0013000000000000
#05413:00130000
#05417:0000001300000000
#05412:0013
#05418:00000013
#05515:0000130000000013
#05518:00000013
#0561b:13
#05615:0013000000000000
#05619:00130000
#05613:0000001300000000
#05617:0013
#05618:0000000000000013
#05715:1300000013000013
#05718:0013000000000000
#05712:00130000
#0571b:0000001300000000
#05818:1323
#05815:0013000000000013
#0581b:00130000
#05812:0000001300000000
#06115:0000001300000013
#06118:0013
#06112:0000000000130000
#0611b:00000013
#0621b:1313
#06218:0013000000000013
#06212:00131300
#06215:0000001300000000
#0671b:0000001300000000
#06718:23000013000000000000000000001300
#06712:0013130000000000
#06818:0013
#0681b:00000000000000000000331333000000
#0681a:00000000000000000033000000330000
#06813:00000033000000000000000000000000
#06814:00330000
#06815:00000000003300000000000000000000
#06912:0000001300000000
#06915:13000013000000000000000000000000
#0691b:0013130000000000
#0071b:00000000000000000033331300000000
#00718:0000001300000000
#0071a:00003333
#00719:00000000000000330000000000330000
#0701b:0013
#07018:0000000000130000
#07015:00000013
#07012:0000000000000013
#07118:23230000
#0711b:00002323
#07112:0000000000232300
#07115:0023002300000000
#0045b:13
#00558:00000000000000000000002300000000
#0055b:0063
#0145b:0013
#01452:00000013
#01558:14
#01554:00140000
#0155b:00000013
#01552:00000013
#0165b:00630000
#01658:0053
#02652:0014
#02658:0000000000140000
#02752:0014
#03152:0014
#03054:0014
#0305a:0000000000140000
#0355a:0014
#0345a:0014
#03454:0000000000140000
#03858:0014
#03852:0000000000140000
#0385a:00000014
#0415a:0014
#0645a:0014
#06552:0014
#06652:0014
#0605a:0014
#0485a:0013
#05052:0016
#05252:0013
#05355:0013
#05458:00000013
#05552:0013
#05555:00630000
#05657:0013
#05755:0013
#05858:0013
#05952:0000000000140000
#0595a:0014
#06354:0014
#0635a:0000000000140000
#06352:00000014
#06858:0053
#0685b:00000000000000000000002300000000
#06758:13
#00758:0000005300000000
#0075b:00000000000000000000006300000000
#06955:13
#03952:0014
#0405a:0014
#0003b0:0000000000000013
#0013b0:00230000
#000321:0000000000000013
#001321:00230000
#002321:0000000000000013
#003321:0033333333002300
#0023b0:0000000000000013
#0033b0:0033333333002300
#004320:00001323
#005350:0013000000000000
#005340:00000033000000000000000000000000
#005330:00330000
#005320:00000000003323000000000000000000
#0053b0:0000000013000023
#005390:00000000000000000033000000330000
#005380:00000000000000000000333333000000
#0063b0:00001323
#006320:0000000000000013
#007350:00230000
#007380:0000001300000023
#007390:00000000000000330000000000330000
#0073a0:00003333
#0073b0:00000000000000000033333300000000
#009350:0000001300000000
#009320:00000023
#011380:0000001300000000
#0113b0:00000023
#013360:0000001300002300
#0163b0:00130023
#016380:0033
#017350:0000001300000000
#017320:00000023
#022380:0000000000000013
#023380:0023000000000000
#024350:13
#024320:00230000
#0243b1:13
#024381:00230000
#024381:0013
#0243b1:00000023
#024320:0013
#024350:00000023
#025350:13
#025320:00230000
#0253b1:13
#025381:00230000
#026351:13
#026321:0023000000000000
#0263b1:00130000
#026381:0000002300000000
#028351:13
#028321:00230000
#030321:13
#030351:0023000000000000
#030381:00130000
#0303b1:0000002300000000
#032381:0013000000000000
#0323b1:0000002300000000
#034381:13
#0343b1:0023000000000000
#034321:00130000
#034351:0000002300000000
#036381:13
#0363b1:00230000
#0383b1:13
#038381:0023000000000000
#038351:00130000
#038321:0000002300000000
#042381:0000001300000000
#042391:0033
#0423a1:0000000000330000
#0423b1:00000023
#043321:00130000
#043341:0000003300000000
#043351:0023
#0443b1:00130000
#0443a1:0000003300000000
#044391:0033
#044381:0000000000230000
#045351:00130000
#045331:0000003300000000
#045321:0023
#047371:0000001300000000
#0473b1:00000023
#051351:13
#051321:00230000
#055351:00130000
#055321:0023
#0593b1:13
#059381:0023000000000000
#059321:00130000
#059351:0000002300000000
#0613b1:13
#061381:00230000
#063351:13
#063321:0023000000000000
#063381:00130000
#0633b1:0000002300000000
#067351:00001323
#068321:0013000000000000
#068331:00000033000000000000000000000000
#068341:00330000
#068351:00000000003323000000000000000000
#068381:0000000013000023
#0683a1:00000000000000000033000000330000
#0683b1:00000000000000000000333333000000
#069381:00001323
#069351:0000000000000013
#070321:0000002300000000
