This file was generated by Ched 2.7.0.0.
#TITLE ""
#ARTIST ""
#DESIGNER ""
#DIFFICULTY 0
#PLAYLEVEL
#SONGID ""
#WAVE ""
#WAVEOFFSET 0
#JACKET ""
#REQUEST "ticks_per_beat 480"
#00002: 4
#BPM01: 128
#00008: 01
#TIL00: ""
#HISPEED 00
#MEASUREHS 00
#0001a:0012001200000000
#00014:00000012000000120000000000000000
#00018:00121200
#00016:00000000001200000000000000000000
#00012:2300000000130013
#0001b:2300000000130013
#00118:00120012
#00112:00000000001200000000000000120000
#0011a:0000001200120012
#00114:00000000000000120000001200000012
#0011c:0012
#00116:00000000000000000012000000000000
#02718:13001300000000000000001300000000
#02719:00130000
#0271a:0000001300000000
#0271b:0000000013230013
#02712:0000000000000013
#02715:00000023
#0261b:0000130000000013
#02615:00000000000000000000000000000013
#02614:0014
#0261a:0000000000140000
#02617:00000013000013000000000000000000
#02612:00001300000000130000240000000000
#02618:0024
#02616:23
#02610:41
#0251b:13001313
#02518:00000000000000000013001300000000
#02515:0000000000130000
#02512:0000130013001314
#0251a:0000000000000014
#02517:0013000000000000
#02514:0000001300000000
#02519:0000001300000000
#02816:13
#02812:0013000000131300
#0281b:1300130013000013
#02818:0000001300001300
#02815:0013
#02918:13000000001300001300000000000000
#02912:13000013000013001300000000001400
#02915:00130000130000000000000000000000
#02915:00130000000000000000000000000000
#0291b:00001300130000130000230000000000
#02916:0000000000130000
#0291a:0000000000000014
#0311b:1313000000000013
#0311a:00130000
#03119:0000001300000000
#03118:0000000013230000
#03115:00000000000000000000001300000000
#03112:0000000000002313
#03018:0000000014000013
#03012:00000013000013000000140000000013
#03016:00130000
#03017:00001300000000130000000000000000
#03014:0024
#0301a:0000000000240000
#0301b:23
#03318:13000000001300001300001300000000
#03312:13000013000013001300000000001400
#03315:00130000130000000000230023000000
#03315:00130000000000000000000000000000
#0331b:00001300130000130000000000000000
#0331a:0000000000000014
#03212:0000130000000013
#0321b:00000000130000000000000000000013
#03219:1313
#03214:1313
#03215:00001300000000000000001300000000
#03218:0013000000232300
#03515:13001300000000000000001300000000
#03512:0000000013230013
#0351b:0000000000000013
#03514:00130000
#03513:0000001300000000
#03518:00000023
#03617:13
#0361b:0013000000131300
#03612:1300130013000013
#03615:0000001300001300
#03618:0013
#03715:13000000001300001300000000000000
#0371b:13000013000013001300000000000000
#03718:00130000130000000000000000000000
#03718:00130000000000000000000000000000
#03712:00001300130000130000130013001400
#03717:0000000000130000
#0371a:0000000000000014
#03912:13001300000000000000000023000013
#03913:00130000
#0391a:0000001300000000
#0391b:0013
#03915:00000000000000000000001300000000
#03918:0000000000230013
#03815:0000000000000013
#0381b:00000013000013000000000000000013
#03814:0014
#03819:0000000000140000
#03817:00130000
#03816:00001300000000130000000000000000
#03812:23000014
#03818:0024
#03813:0000000000240000
#0381a:00000024
#03810:41
#0401b:13001300000000000000000023000013
#0401a:00130000
#04013:0000001300000000
#04012:0013
#04018:00000000000000000000001300000000
#04015:0000000000230013
#04112:1313001300000013
#0411b:0000130013000013
#04115:00000013
#04118:0000000000130000
#04318:00120000
#04314:0012000000000000
#04312:0000000000150013
#04319:00000015
#04317:0000000000130000
#04316:12000013
#0431a:0000001200000000
#0431c:0012
#0431b:0000000000000013
#04218:0000001200000012
#0421a:00001212
#0421c:0000000000120000
#04216:00120000
#04214:0012000000000000
#04212:12
#04516:0000120000130000
#0451a:0012000000000000
#04519:0000000000150000
#04512:00001215
#04517:00000013
#04518:12
#04514:0000001200000000
#04416:0000001200000012
#04414:00001212
#04412:0000000000120000
#04418:00120000
#0441a:0012000000000000
#0441c:12
#0471b:00001313
#04718:00000000000000000013001300001300
#04715:0000000000130000
#04712:00001313
#04717:000000000000000000000000000000000000000000000000000000160000000000001600000000000000000000000000000000000000000000000000000000000000000000000000000000000000000000000000000000000000000000000000
#04716:00000000001800000000000000000000
#04719:00120000
#04812:0013000013001300
#04815:13000000130000000013001300000000
#04818:0000001300130013
#0481b:13131313
#05018:1213141526000000
#05012:1213141526000013
#0501b:0000000000000013
#0491a:00140014
#04912:1414
#04915:0013000000130000
#04918:0000001300000013
#04910:41
#05217:0013000000000000
#0521a:00130000
#0521b:0000000013000013
#05218:0000001300000000
#05216:0000000000000013
#05117:0013001300000000
#05112:2400001300000000
#05116:00130000
#0511b:13
#0511f:11
#0551a:1313
#0551b:00130013
#05518:0000000000000013
#05512:00130013
#05516:0000001300000000
#05513:13
#0561a:1313
#0561b:00130013
#05616:0000130000000013
#05618:0000001300000000
#05613:0013
#05612:13000013
#05614:0013000000000000
#05713:1313
#05712:00130013
#05717:00130000
#05715:0000001300000013
#0571b:13001313
#05719:0013000000000000
#05718:00000000000000000000000000000013
#05812:1300130023000014
#05815:00130013000013000000000000000000
#0581b:13131300
#05818:00001300001300130000000000000000
#0581a:0000000000000014
#05914:0014
#0591a:0000000000140000
#0591b:00000013000013000000000000000013
#05912:00001300000000130000240000000000
#05917:00130000
#05915:0000000000000013
#05918:0024
#05916:23
#0591f:21
#0601b:0000000000002313
#06012:1313000000000013
#06013:00130000
#06014:0000001300000000
#06015:0000000013230000
#06018:00000000000000000000001300000000
#06010:41
#06112:1300000000130000
#06116:0013000000000000
#06118:1300001313001300
#0611b:0000130000000013
#06115:00001313
#06218:13000013000013000000000000000000
#06212:13000000001300001300230000001400
#0621b:00130000130000001300000000000000
#0621b:00130000000000000000000000000000
#06215:00001300130000130000000000000000
#06217:0000000000130000
#0621a:0000000000000014
#06315:00000000000000130000000000001300
#0631b:00000000130000000000000000000013
#06314:0014
#06319:0000000000140000
#06318:00000013000000002400000000000000
#06316:0013000000000000
#06317:0000001300000000
#06312:23000014
#06313:0000000000240000
#0631a:00000024
#06412:13000000000000000000000023000013
#06415:00001300000000000000001300000000
#06418:0000000013230013
#0641a:00130000
#06413:0000001300000000
#0651b:13000000000000000000000023000013
#06518:00001300000000000000001300000000
#06512:0000000000000013
#06513:00130000
#0651a:0000001300000000
#06515:0000000013230000
#06615:1313001300000000
#06618:00131300
#06614:00000013
#0661a:0000000000000013
#06613:0000000000000013
#06616:0000000000140000
#06619:00000013
#03412:0000130000140013
#03418:00000000000000001400000000000013
#03416:00000013000013000000000000000000
#0341b:00001300000000130000000000000000
#03414:0024
#0341a:0000000000240000
#03417:23
#0051b:0013000000000000
#00516:00000013000000000000000000000000
#00519:00000000130000000000001300000013
#00514:00000000001300000000130000001300
#00517:00000000000013000013000000130000
#00512:00001313
#00616:13131300
#0061b:1300130013000013
#00618:0013000000000000
#00613:00000013000000000000000000000000
#00617:0000001300130000
#00612:0000001300130013
#00319:0013000000000013
#00317:00131300
#0031b:0000001300130000
#00312:00000013
#00314:0000000000000013
#00219:0000000000000013
#00212:2300000000130000
#0021b:2300000000130000
#00214:0012001200000000
#0021a:00000012000000120000000000000000
#00216:00121200
#00218:00000000001200000000000000000000
#00416:0000001300130013
#0041b:2300001300130013
#00415:0013000000000000
#0041a:00000013000000000000000000000000
#00412:23131300
#00417:00131300
#00410:41
#0071c:0000001200000000
#00717:00000000000000120000000000000000
#0071b:0012
#00716:13000000000000000012000000000000
#0071a:0000000000120000
#00715:00000000130000000000001200000000
#00719:00000012
#00714:00000000000000000000000000120000
#00718:0013000000000012
#00713:00000000000000000000000000000012
#0241b:1313
#02417:0013000000130000
#02412:0000001300000013
#02416:00230023
#0231a:00000014
#02314:0014
#02318:0000140000130000
#02313:0013000000000000
#02312:00130014
#02315:0000001300000000
#0231b:0013
#02316:14
#0221a:0000001300000013
#02216:00140014
#02213:0013000000130000
#02212:13
#0221b:13
#02214:0013
#02219:0013
#00817:0013000000000000
#0081b:23131313
#00816:00130000
#00812:0013001300001300
#00815:0000000013000013
#00818:0000000000130000
#00918:13130000
#00912:13130000
#0091b:0013000000000000
#00916:0000001200000000
#00915:0012
#00914:0000000000120000
#00913:00000012
#01016:0013000000000000
#01012:00131313
#01017:00130000
#0101b:0000001300001300
#01018:0000000013000013
#01015:0000000000130000
#01115:13130000
#0111b:13130012
#01112:0013000000000000
#01118:0000001200000000
#01119:0012
#0111a:0000000000120000
#01218:0013130000000000
#01215:13000000000000000000000000000013
#0121b:0000000000000013
#01214:0000001200120000
#0121a:0000001200120000
#01313:00130000000000000000000000000000
#01317:0013000013000000
#01312:00000013000000000000000000000000
#01319:13130000
#01314:00000000001300000000000000000000
#0131b:0000001300000000
#01316:0000000000000013
#01412:13000013
#01418:00000013000000000000000000000000
#0141b:00131300
#01417:0000001300001300
#01416:0013
#01414:0000000000130000
#01419:0000000000000013
#01516:14140000
#0151b:13000013
#01518:0013000013000000
#01512:00130013
#01515:00000000000013000013000000000000
#01519:0000000000130000
#01514:00000000000000000000001300000000
#01615:0013130000000000
#01612:2300001300001300
#0161b:2300130000130013
#01618:0013
#01610:41
#01712:0013130012000013
#01714:0000000000120000
#01716:00000012
#01715:13
#0171b:1300001300000000
#01718:00130000
#0181b:1313
#01818:0013130000131300
#01815:1300001313000013
#01812:00130013
#01912:1300130000000013
#0191b:13131300
#01918:0013000000000000
#01915:0000001300000000
#02012:1300001313000013
#02018:1313
#0201b:0013130000131300
#02015:00130013
#02112:13131300
#02118:1300130000000013
#0211b:0013000000000000
#02115:00000000000013000000000000000013
#05314:1300001300000000
#05312:0013130000000013
#05316:0013
#05317:00000013000000000000000000001300
#05419:13130000
#0541b:0013000013000000
#05417:0000001300130000
#05412:0000000013130000
#05416:0013000000001300
#06812:0013000000000000
#06817:00000013000000000000000000000000
#06814:00000000130000000000001300000013
#06819:00000000001300000000130000001300
#06816:00000000000013000013000000130000
#0681b:00001313
#06917:13
#06912:1300130013000013
#0691b:0000130013000013
#06915:0013000000130000
#06918:00000013000000000000130000000000
#06914:0000001300000000
#06919:0000001300000000
#0671b:2300130000130013
#06712:2300130000130013
#06718:0013000013000000
#06715:00000013000000001300000000000000
#06719:0000001300000000
#06714:0000001300000000
#07015:00001300000013000000001200000000
#07016:00000000000000000012000000000000
#07014:00000000000000000000000000120000
#07017:13
#07018:0000130000000012
#07013:00000000000000000000000000000012
#0701b:0012
#0701a:0000000000120000
#07019:00000012
#07117:13130000
#07116:0013001300000000
#07113:0000000000150000
#07118:0000000014252600
#07112:23230026
#0711b:0023002300000000
#07114:0024
#04615:0000000000000012
#04612:00000000000000000000000000000018
#02758:0013000000000000
#02759:00130000
#0275a:0000001300000000
#0275b:0013
#0255b:63000043
#02552:00000033
#02557:0023000000000000
#02658:0044
#02652:0000000000340000
#02852:0023000000002300
#02856:63
#0285b:0023
#02952:0053
#02956:0000000000230000
#0295b:00000013
#0315b:0013000000000000
#0315a:00130000
#03159:0000001300000000
#03158:0013
#03054:0034
#0305a:0000000000440000
#03657:53
#0365b:0023000000002300
#03652:0023
#0375b:0063
#03757:0000000000230000
#03752:00000013
#03952:0013000000000000
#03953:00130000
#0395a:0000001300000000
#0395b:0013
#0405b:0013000000000000
#0405a:00130000
#04053:0000001300000000
#04052:0013
#04152:0013001300000000
#0415b:00131300
#04352:0000000000150000
#04359:00000015
#04559:0000000000150000
#04552:00000015
#05058:0016
#05052:0016
#0485b:0013
#0525b:0000000043000063
#05157:0023000000000000
#0515b:63
#05552:00533300
#05556:0000002300000000
#0585b:13
#05852:0013
#0565a:0043
#05753:0033
#06152:53
#06156:0023000000000000
#06158:0023
#06155:00000023
#0625b:0063
#06257:0000000000230000
#06252:00000013
#06655:0013001300000000
#06658:00131300
#05958:0044
#05952:0000000000340000
#06358:0044
#06353:0000000000340000
#0635a:00000044
#06455:0013000000000000
#0645a:00130000
#06453:0000001300000000
#06458:0013
#06558:0013000000000000
#06553:00130000
#0655a:0000001300000000
#06555:0013
#03555:0013000000000000
#03554:00130000
#03553:0000001300000000
#03552:0013
#03454:0034
#0345a:0000000000440000
#03858:0044
#03853:0000000000340000
#0385a:00000044
#06052:0013000000000000
#06053:00130000
#06054:0000001300000000
#06055:0013
#06752:3300000000230000
#0675b:4300000000230000
#06755:0063
#06758:0053
#00656:1363
#0065b:0000000063000013
#00652:0000000000230053
#00657:0000000000230000
#0045b:1300000000230000
#00452:1353
#00456:0000000000230000
#00457:0053
#00052:0000000000000053
#0005b:0000000000000063
#00756:23
#0245b:6363
#02456:00630063
#02452:0000002300000023
#02457:0023000000230000
#02353:0013000000000000
#02358:00440000
#0235a:00000044
#02354:0034
#02352:00000034
#0225a:0000000000000013
#02252:13
#0225b:13
#00857:0053000000000000
#0085b:00230000
#01056:0063000000000000
#01052:00230000
#01258:0016
#01252:00000016
#0125a:0000005200000000
#01254:0000000000620000
#01357:0023
#0135b:0000006300000000
#01356:0000000000000063
#01452:23000013
#0145b:0013
#01556:34440000
#0155b:33000013
#01552:00430013
#01655:00630000
#01652:0000002300000000
#0165b:0000000000230000
#01658:0053
#0195b:0000000013000013
#01955:00000000000000000000001300000000
#02152:0013
#02158:00000000000000000000001300000000
#05356:0013
#05357:00000023000000000000000000000000
#05352:0000000000000053
#0545b:0063
#05457:0000000000230000
#05456:0023000000001300
#06957:13
#06952:0000000053000013
#0695b:0000000063000063
#06955:0000000000230000
#06958:0000000000230000
#07057:23
#07158:00000046
#07152:00000036
#03252:00230000
#0325b:00230000
#03258:0053000000000000
#03255:0063000000000000
#04655:0000000000000062
#04652:00000000000000000000000000000028
#04757:000000000000000000000000000000000000000000000000000000560000000000002600000000000000000000000000000000000000000000000000000000000000000000000000000000000000000000000000000000000000000000000000
#04756:00000000002800000000000000000000
#04759:00520000
#000320:0000000000000013
#001350:0023000000000000
#0003b1:0000000000000013
#001381:0023000000000000
#002341:0000000000000013
#003341:0033000000000000
#003321:00332300
#003361:0000003300000000
#004321:00001323
#004361:0000000000330000
#004370:00001323
#0043b0:0000000000330000
#0063b0:00001323
#006370:0000000000330000
#006361:00001323
#006321:0000000000330000
#006321:0000000000000013
#007361:53
#007321:0023000000000000
#008371:0013002300000000
#0083b1:00530000
#0093c1:0000001200000000
#009391:0032
#0093b1:0000000000320000
#009381:00000032
#0093a1:0000000000000022
#009320:0000000000000013
#010350:23
#010381:13
#0103b1:0023000000000000
#010360:0013002300000000
#010320:00530000
#011320:0000001200000000
#011350:0032
#011330:0000000000320000
#011360:00000032
#011340:0000000000000022
#0113b1:0000000000000013
#0123b1:23
#012321:0013230000000000
#0123a1:0000001200000000
#012381:0026
#012341:0000000000120000
#012321:00000026
#0133b1:0000001300230000
#013371:0053
#013340:0000000000120000
#013360:00000022
#013381:00000012
#0133a1:0000000000000022
#013360:0000000000000013
#014320:53
#014360:0023000000000000
#014360:00130000
#014320:0000002300000000
#016350:00132300
#016320:0000005300000000
#016381:00001323
#0163b1:0000000000530000
#017381:0012
#0173b1:0000000000320000
#017391:00000032
#0173c1:0000000000000022
#019321:0013
#019351:00000000000000000053002300000000
#019380:00000000000000000000001300000000
#0193b0:0000000000005323
#0213b0:0013
#021380:00000000000000000053002300000000
#021351:00000000000000000000001300000000
#021321:0000000000005323
#0243b1:13230000
#024371:0053000000000000
#024360:00132300
#024320:0000005300000000
#0243b1:00001323
#024371:0000000000530000
#024360:00000013
#024320:0000000000000053
#025360:23
#0253b1:13230000
#025371:0053000000000000
#0263b1:13
#026371:0023000000000000
#026361:00130000
#026321:0000002300000000
#027321:00001323000000000000000000000000
#027331:00000000132300000000000000000000
#027341:00000000000013230000000000000000
#027351:00000000000000001323000000000000
#028361:13230000
#028321:0053000000000000
#0283b1:0013
#028381:0000000000230000
#028321:00000013
#028351:0000000000000023
#029321:00001323
#029361:0000000000530000
#0293b0:0000000000132300
#030360:13
#030320:0023000000000000
#0303b0:00130000
#030370:0000002300000000
#031350:00001323000000000000000000000000
#031340:00000000132300000000000000000000
#031330:00000000000013230000000000000000
#031320:00000000000000001323000000000000
#032350:0013002300000000
#032320:00530000
#032381:0013002300000000
#0323b1:00530000
#034321:13
#034361:0023000000000000
#034371:00130000
#0343b1:0000002300000000
#0353b1:00001323000000000000000000000000
#0353a1:00000000132300000000000000000000
#035391:00000000000013230000000000000000
#035381:00000000000000001323000000000000
#036371:13230000
#0363b1:0053000000000000
#036321:0013
#036351:0000000000230000
#0363b1:00000013
#036381:0000000000000023
#0373b1:00001323
#037371:0000000000530000
#038371:13
#0383b1:0023000000000000
#038321:00130000
#038361:0000002300000000
#039381:00001323000000000000000000000000
#039391:00000000132300000000000000000000
#039341:00000000000013230000000000000000
#039351:00000000000000001323000000000000
#040351:00001323000000000000000000000000
#040341:00000000132300000000000000000000
#040391:00000000000013230000000000000000
#040381:00000000000000001323000000000000
#041381:00001323000000000000000000000000
#041351:00000000132300000000000000000000
#041381:00000000000013230000000000000000
#041351:00000000000000001323000000000000
#0423b1:13230000
#042321:00001323
#0433b1:1323000000000000
#043321:0000132300000000
#044321:13230000
#0443b1:00001323
#045321:1323000000000000
#0453b1:0000132300000000
#0453c1:0000000000000012
#0463a1:22
#046320:12
#046340:0022000000000000
#0463b1:0012000000000000
#046391:00220000
#046330:00120000
#046350:0000002200000000
#046391:0000001200320000
#046371:00003222
#046350:00001222
#046370:0000000000320000
#046350:0000000000000012
#046320:00000000000000000000000000000058
#047350:22
#047381:1626000000000000
#047350:0012220000000000
#047320:00000058000000000000000000000000
#047391:0000122200000000
#047371:000000000000000000000000000000000000000000000000000056560000000000565600000000000000000000000000000000000000000000000000000000000000000000000000000000000000000000000000000000000000000000000000
#047361:00000000005800000000000000000000
#0493a1:14
#049381:0024000000000000
#049321:00140000
#049341:0000002400000000
#0493a1:0014
#049381:0000000000240000
#049321:00000014
#049341:0000000000000024
#0513b1:13230000
#051371:0053000000000000
#051341:0000000000183828
#052321:0013000000000000
#052361:0023
#0523b1:0000000000000013
#053371:00000053000000000000000000000000
#0533b1:0023
#053321:0000000000000013
#054361:0053000000000000
#054321:0000002300000000
#0543b1:00001323
#054371:0000000000530000
#055321:00132300
#055361:0000005300000000
#0593b1:13
#059371:0023000000000000
#059321:00130000
#059361:0000002300000000
#060381:00001323000000000000000000000000
#060391:00000000132300000000000000000000
#0603a1:00000000000013230000000000000000
#0603b1:00000000000000001323000000000000
#061321:13230000
#061361:0053000000000000
#061381:0013
#0613b1:0000000000230000
#061351:00000013
#061321:0000000000000023
#0623b1:00001323
#062371:0000000000530000
#062320:0000000000132300
#063370:13
#0633b0:0023000000000000
#063360:00130000
#063320:0000002300000000
#0643b0:00001323000000000000000000000000
#064340:00000000132300000000000000000000
#064390:00000000000013230000000000000000
#064320:00000000000000001323000000000000
#065320:00001323000000000000000000000000
#065390:00000000132300000000000000000000
#065340:00000000000013230000000000000000
#0653b0:00000000000000001323000000000000
#0663b0:00001323000000000000000000000000
#066320:00000000132300000000000000000000
#0663b0:00000000000013230000000000000000
#066320:00000000000000001323000000000000
#067350:00001323
#067320:0000000000330000
#067381:00001323
#0673b1:0000000000330000
#069321:00001323
#069351:0000000000330000
#0693b0:00001323
#069380:0000000000330000
#0693b0:0000000000000013
#070370:53
#0703b0:0023000000000000
