This file was generated by Ched 2.7.0.0.
#TITLE ""
#ARTIST ""
#DESIGNER ""
#DIFFICULTY 0
#PLAYLEVEL
#SONGID ""
#WAVE ""
#WAVEOFFSET 0
#JACKET ""
#REQUEST "ticks_per_beat 480"
#00002: 4
#BPM01: 128
#00008: 01
#TIL00: ""
#HISPEED 00
#MEASUREHS 00
#0121a:14
#01214:0014
#05512:14
#05518:00140000
#05514:0014
#0551a:00000014
#05614:14
#05618:00140000
#05612:0014
#0671a:14
#06714:00140000
#06812:14
#06818:00140000
#01112:14
#01412:14
#01418:0014
#0201a:14
#02014:0014
#02118:14
#02112:0014
#0461a:14
#04612:0014
#0041a:14
#00414:0014
#00410:41
#0051a:14
#00514:0014
#00618:14
#00612:0014
#00718:14
#00814:0014
#0081a:24
#0091a:14
#01012:14
#01018:0014
#01318:14
#01514:14
#0291a:14141400
#02914:0014001400000000
#03214:0014
#03212:14
#03218:00140000
#0281a:14
#02814:00140000
#02818:0014
#02812:00000014
#04118:0016001600000000
#04112:16161600
#03012:1616
#03018:00160000
#03818:16001616
#03812:00160000
#03810:41
#0481a:14
#04812:0014
#0491a:14
#04912:00140000
#04918:0014
#04914:00000014
#04910:41
#0511a:14
#0511f:11
#05119:0034
#05312:14
#0541a:14
#05718:14
#05719:00340000
#05814:14
#05813:00340000
#06014:14
#06019:0014000000000000
#06013:00140000
#06018:0000001400000000
#06012:0014
#06010:41
#06312:1616
#06318:00160016
#06218:14
#06219:00140000
#06213:0014000000000000
#0621a:0014
#06214:0000001400000000
#0691a:14
#06914:00140000
#02218:14
#02214:0014
#0231a:14
#0331a:14141400
#03314:0014001400000000
#03712:14141400
#03718:0014001400000000
#03612:14
#03618:00140000
#03614:0014
#0361a:00000014
#04319:0014
#04313:0014
#04513:0014
#04519:0014
#06612:16161600
#06618:0016001600000000
#0471a:14
#04714:00140000
#04718:0014
#04712:00000014
#02618:2626
#02612:00260000
#02610:41
#05918:2626
#05912:00260000
#0591f:21
#03412:2626
#03418:00260000
#01610:41
#02552:0016
#0515a:64
#0545a:64
#05352:54
#05758:54
#0575a:0014
#05852:0014
#05854:64
#05055:0016
#0045a:14
#01952:14
#0175a:14
#07152:00000014
#000390:1400000000340034
#001390:00240000
#002330:1400000000340034
#003330:0034343424000000
#016380:14
#016390:0034
#0173a0:24
#018340:14
#018330:0034
#019320:24
#024320:16
#024330:00360000
#024340:0036
#024350:00000036
#025320:3600003626000000
#027320:1636363626000000
#031380:1636363626000000
#035380:1626
#035370:0036003600000000
#035360:00360000
#039320:1626
#039330:0036003600000000
#039340:00360000
#040380:1626
#040370:0036003600000000
#040360:00360000
#0423a0:1434
#0433a0:24
#042341:1434
#043341:24
#044321:1434
#045321:24
#044380:1434
#045380:24
#050350:1636363626000000
#0513a0:14
#051390:0034
#052380:3424
#053320:14
#053340:0024
#0543a0:14
#054380:0024
#057380:14
#057390:00340000
#0573a0:0024
#058340:14
#058330:00340000
#058320:0024
#061380:14240000
#061320:00001424
#064320:1626
#064330:0036003600000000
#064340:00360000
#065380:1626
#065370:0036003600000000
#065360:00360000
#0673a0:00001424
#068320:00001424
#0693a0:0000000014000034
#070380:00000024
#071320:14000024
#071330:0034000000340000
#071340:00343400
#071350:0000003400000000
