This file was generated by Ched 2.6.4.0.
#TITLE ""
#ARTIST ""
#DESIGNER ""
#DIFFICULTY 0
#PLAYLEVEL
#SONGID ""
#WAVE ""
#WAVEOFFSET 0
#JACKET ""
#REQUEST "ticks_per_beat 480"
#00002: 4
#BPM01: 160
#00008: 01
#TIL00: ""
#HISPEED 00
#MEASUREHS 00
#02518:2616
#0251f:21
#02718:16
#02712:0016
#0361a:14
#03612:0014
#04118:2616
#04512:2616
#04712:16
#04718:0016
#04710:41
#04812:1616
#04912:0016
#04918:26
#05118:16
#05112:0016
#05512:16
#05518:0016
#0631a:14
#06212:14
#0611a:14
#0091a:14
#0101a:14
#01114:14
#01214:14
#01318:14
#01418:14
#01512:14
#01510:41
#01612:14
#00118:14
#00214:14
#00318:14
#00414:14
#0051a:14
#00510:41
#00612:14
#0071a:14
#00812:14
#03514:14
#03918:14
#02612:1616
#02610:41
#02912:2616
#03112:16
#03118:0016
#03018:1616
#04418:16
#04312:0016
#04318:16
#05018:16
#05012:0016
#05318:0016
#05312:26
#05412:16
#05418:0016
#03418:14
#05718:16
#05814:14
#05918:14
#06014:14
#03312:16
#02818:16
#03218:0016
#03212:16
#0371a:14
#03710:41
#03814:14
#0171f:11
#05610:41
#017380:14
#018380:24
#019320:14
#020320:24
#0213a0:14
#0223a0:24
#023340:14
#024340:24
#040340:1424
#042320:1626
#046380:1626
#052380:1626
#056320:1626
#064320:1400000034000024
