This file was generated by Ched 2.6.4.0.
#TITLE ""
#ARTIST ""
#DESIGNER ""
#DIFFICULTY 0
#PLAYLEVEL
#SONGID ""
#WAVE ""
#WAVEOFFSET 0
#JACKET ""
#REQUEST "ticks_per_beat 480"
#00002: 4
#BPM01: 160
#00008: 01
#TIL00: ""
#HISPEED 00
#MEASUREHS 00
#00018:13000000000000000013000000000000
#00015:00001300000000130000000000001300
#00012:0000130000130000
#0001b:0000001300001300
#00112:23001300000000000013000000000000
#00118:0000130000130013
#00115:0000001300001300
#0011b:23000000000000130000000000000000
#00312:13
#00316:0000001300000000
#0091b:0013000000000000
#00914:00130000
#00916:0013000000130013
#00912:0000001300000000
#00918:23
#0101b:13
#01014:0013000000001300
#01019:00130000
#01012:0000001300130000
#01016:0000000000000013
#01112:0013000000000000
#01117:0013000000130000
#0111b:0000001300000000
#01119:00130000
#01215:0013000000000000
#0121b:0000130000130000
#01217:00000000000000000000000000130000
#01717:0000001300000000
#01712:0013
#0171f:11
#0171b:23
#01816:2313000000000000
#01812:0000001300000013
#01815:00001313
#01818:0000000000130000
#0181b:0023000000000000
#01916:0000001300000000
#0191b:0013
#01912:13
#02017:2313000000000000
#0201b:0000001300000013
#02018:00001313
#02015:0000000000130000
#02012:0023000000000000
#02116:1313000000000000
#02117:0000001300130000
#02112:0000000000000013
#0221b:0000131300000013
#02212:1300000000130000
#02312:0000001313000000
#0231b:13
#0231a:00000000000033003333000000000000
#02319:00000000000000000000333333333333
#02314:00000000000000000000333333333333
#02313:00000000000000000033000000000000
#02415:0000001300130013
#02418:00001313
#02517:0000130000130000
#02514:00000013
#02516:0000000000000013
#0251b:0000000000000013
#0251a:2400002400000000
#0251f:21
#02617:13
#02616:0013000000000000
#02618:0000130000240000
#02615:0000001300000000
#0261a:00000024
#02610:41
#01415:0000000000130013
#01418:00000013
#0141b:0000000000000013
#01512:0013000000130000
#0151b:0000001300000000
#01518:0013000000130000
#01515:0000001300001300
#01510:41
#01618:0000000000130013
#01615:00001313
#01612:0000000000130000
#0271b:13
#02718:00130013
#02712:0000000000130000
#02715:0000001300000013
#02916:0000130000130000
#02919:00000013
#02917:0000000000000013
#02912:2400002400000013
#03016:13
#03017:0013000000000000
#03018:0000130000240000
#03015:0000001300000000
#0301b:0000000013000013
#03012:0013
#03014:00000024
#02812:13
#02818:0013000000001300
#0281b:0000000000130000
#02815:0000000000000013
#0411b:0000130000130000
#04114:00000013
#04112:0000000000000013
#04117:2400002400000013
#0421b:13
#04212:0013000000002400
#04215:00130000
#04218:0000001300000000
#04214:0000000000240000
#04512:0000130000130000
#04519:00000013
#0451b:0000000000000013
#04516:0000000000000013
#04515:2400002400000000
#04612:1300000013000013
#0461b:0013000013000000
#04615:00130000
#04618:0000001300002400
#04614:0000000000240000
#04312:13
#04315:00130013
#0431b:0000000000130000
#04318:0000001300000013
#0441b:13
#04415:0013000000001300
#04412:0000000000130000
#04418:0000000000000013
#0071b:13
#00717:0000001300000000
#00818:0000000000130000
#0051b:13000000000000130000000000000000
#00515:00001300000000000013000013000000
#00518:0000130000130000
#00512:0000001300000013
#00510:41
#0491b:0000130000000013
#04916:0000000000130000
#04914:00000013
#04912:0000002400000013
#04917:24
#05016:13
#0501b:0013000000000000
#05015:00130000
#05018:0000001300002400
#0501a:0000000000240000
#05115:0000001300001300
#05118:1300000000000013
#0511b:00130000
#05112:0000000000130000
#05215:13000013
#0521b:0013000000000000
#05212:0000000000130000
#05218:0000000000000013
#05312:0000130000000013
#05317:0000000000130000
#05319:00000013
#0531b:0000000000000013
#05315:24
#0531a:0000002400000000
#05417:13
#05412:0013000013000000
#05418:0000130000240000
#05415:0000001300000000
#0541b:0000000013000013
#05414:00000024
#0311b:0013000000000000
#03115:0013000000000013
#03118:00000013
#03112:00000013
#04712:0013000000000000
#04718:0013000000000013
#04715:00000013
#0471b:00000013
#04710:41
#03218:1300000000130000
#03215:0013000000001300
#0321b:0013000000000013
#0591b:13
#05917:0000001300000000
#05912:00230000
#05915:00000023
#06312:13
#06316:0000001300000000
#0631b:00230000
#06318:00000023
#06112:13000000000000130000000000000000
#06118:00001300000000000013000023000000
#0611b:0000001300000013
#06115:0000230000130000
#04815:1300000000130000
#04818:0013000000001300
#04812:0013000000000013
#03312:13000000000000000013000000001300
#03315:0013001300002300
#0331b:13000000000000130000000000000000
#03318:0000230000130000
#03517:13
#0351b:0000001300000000
#03514:00230023
#03612:0000000000130000
#03615:00000013
#03618:0000000000000013
#0361b:00130000
#0371b:13000000000000000013000000001300
#03718:0013001300002300
#03712:13000000000000130000000000000000
#03715:0000230000130000
#03710:41
#03916:13
#03912:0000001300000000
#03919:00230023
#04016:0000000000130000
#04017:00000013
#04012:00000013
#0401b:00230000
#05515:13000013
#05512:00000013000000000000000000001300
#0551b:0013000000001300
#05518:00130000
#0561b:1300001300000000
#05618:0013000000000000
#05612:0013001300000000
#05619:0000000000130000
#05614:00000013
#05617:0000000000000013
#05616:0013
#05610:41
#05712:13000000000000130000000000000000
#0571b:13001300000000000013000000000000
#05718:0000001300002300
#05715:0000230000130013
#06419:00000013
#06414:00000013
#06417:0000000000000013
#06412:0000000000000013
#06416:0000000000130000
#06418:00230000
#01312:2300000000130013
#0131b:0000000000130013
#01316:00000014
#03415:00230000
#03419:0000000000230000
#0341a:00000023
#06213:0000000000230000
#06214:00000023
#06219:00230000
#05814:00230000
#05818:0000000000230000
#05819:00000023
#06015:00230000
#06012:00000023
#06018:0000000000230000
#03818:00230000
#03814:0000000000230000
#03813:00000023
#00352:53
#00356:0000002300000000
#0125b:0000000000630000
#01257:00000000000000000000000000230000
#02156:0063000000000000
#02157:0000000000530000
#0225b:0000006300000000
#02252:5300000000530000
#0235b:63
#02352:0053
#0255a:1400001400000000
#0255b:0000000000000063
#02657:23
#02952:1400001400000053
#03056:23
#02852:53
#02858:0053000000000000
#02855:0000001300000000
#0285b:0000001300000000
#04157:1400001400000053
#0425b:23
#04556:0000000000000063
#04555:1400001400000000
#04652:23
#0445b:63
#04455:0063000000000000
#04458:0000001300000000
#04452:0000001300000000
#0075b:63
#00757:0000002300000000
#04952:0000001400000053
#04957:14
#05056:23
#05255:63
#0525b:0063000000000000
#05252:0000001300000000
#05258:0000001300000000
#0535b:0000000000000063
#05355:14
#0535a:0000001400000000
#05457:23
#03155:0063000000000000
#0315b:0063000000000000
#03152:0000001300000000
#03158:0000001300000000
#04752:0053000000000000
#04758:0053000000000000
#04755:0000001300000000
#0475b:0000001300000000
#0595b:63
#05957:0000002300000000
#06352:53
#06356:0000002300000000
#03557:53
#0355b:0000002300000000
#03956:63
#03952:0000002300000000
#05555:6300004300000000
#0555b:0063004300000000
#05552:00000023000000000000000000000000
#05558:00230000
#02458:13
#02455:13
#002320:13
#002360:0023
#0023b1:0013
#003371:23
#003320:13000023
#003360:0000005300000000
#003391:0000000000001323
#003340:0000000000000013
#004340:23
#004371:1323000000000000
#004320:0013000000000000
#004350:0000002300000000
#004381:0000001300000000
#0043b1:0000000000230000
#004350:0000000000130000
#005320:23
#006370:13
#0063b0:0023
#006361:0013
#007321:23
#0073b0:13000023
#007370:0000005300000000
#007341:0000000000001323
#007390:0000000000000013
#008390:23
#008361:1323000000000000
#0083b0:0013000000000000
#008380:0000002300000000
#008351:0000001300000000
#008321:0000000000230000
#008321:00000013
#009351:23
#009371:0000001300000000
#0093b1:0000000000230000
#010371:0000000000130000
#010391:00000033
#0103b1:0000000000000023
#011361:0000001300000000
#011321:0000000000230000
#011381:0000000000000013
#012381:0023000000000000
#012321:0000001300000000
#012361:0000000000230000
#0123b0:0000000000130000
#012370:00000000000000000000000000530000
#0133b0:23
#013380:00001200325233000000000000000000
#0133a0:0023
#013361:00001200325200000000000000000000
#013351:0000003300000000
#013331:0023
#014361:12003252000000000000000000000000
#014351:00330000
#014331:0000002300000000
#014380:12003252330000000000000000000000
#0143a0:0000002300000000
#015380:0000000000000013
#0163b0:0023
#017360:13
#017320:0000002300000000
#017370:0013
#0183b0:23
#019370:13
#0193b0:0000002300000000
#019360:0013
#020320:23
#021360:0013000000000000
#021320:0000002300000000
#021370:0000000000130000
#0213b0:0000000000000023
#022320:13
#022360:00230000
#0223b0:0000001300000000
#022370:0000000000230000
#022321:0000000000130000
#022361:0000000000000023
#0233b1:13
#0233a1:00000000000033003333000000000000
#023391:00000000000000000000333333333333
#024381:23
#023320:0013
#023330:00000000000000000033000000000000
#023340:00000000000000000000333333333333
#024350:23
#025360:1300003300000000
#025320:0000330000230000
#0253b0:0000000000000013
#026370:53
#0263b0:0023000000000000
#026320:0013
#026360:00000023
#027320:13
#027350:00230000
#027380:0000001300000000
#0273b0:0000000000230000
#028320:13
#028350:0000002300000000
#028381:0013000000000000
#0283b1:0000002300000000
#029371:1300003300000000
#0293b1:0000330000230000
#029321:0000000000000013
#030361:53
#030321:0023000000000000
#031321:1300002300000000
#031351:0033000000000000
#0313b0:0013000000000000
#031380:0000002300000000
#032320:0000001300000000
#032350:0000000000230000
#0343b0:13
#034380:0023
#034351:0013
#035321:23
#035370:13000023
#0353b0:0000005300000000
#0353b0:0000000000000013
#0363b0:23
#036321:13
#036361:00230000
#0363b1:0000001300000000
#036371:0000000000230000
#038321:13
#038351:0023
#038380:0013
#0393b0:23
#039361:13000023
#039321:0000005300000000
#039321:0000000000000013
#040321:23
#0403b0:1323000000000000
#040361:0013000000000000
#040321:0000002300000000
#040370:0000001300000000
#0403b0:0000000000230000
#041320:1300003300000000
#041360:0000330000230000
#041370:0000000000000013
#0423b0:53
#042370:0023000000000000
#0423b0:0013
#042370:00000023
#0433b0:13
#043380:00230000
#043350:0000001300000000
#043320:0000000000230000
#0443b0:13
#044380:0000002300000000
#044351:0013000000000000
#044321:0000002300000000
#0453b1:1300003300000000
#045371:0000330000230000
#045361:0000000000000013
#046321:53
#046361:0023000000000000
#0473b1:1300002300000000
#047381:0033000000000000
#047320:0013000000000000
#047350:0000002300000000
#0483b0:0000001300000000
#048380:0000000000230000
#049320:13
#049360:00230000
#049370:0000001300000000
#0493b0:0000000000230000
#049320:0000000000000013
#050360:53
#050320:0023000000000000
#050360:0013
#050320:00000023
#051320:13
#051350:00230000
#0513b0:0000001300000000
#051380:0000000000230000
#052350:13
#052320:0000002300000000
#0523b1:0013000000000000
#052381:0000002300000000
#0533b1:13
#053371:00230000
#053361:0000001300000000
#053321:0000000000230000
#0533b1:0000000000000013
#054371:53
#0543b1:0023000000000000
#055351:1300002300000000
#055321:00000053000000000000000000000000
#0553b0:0013002300000000
#055380:00530000
#0583b0:13
#058370:0023
#058321:0013
#059361:23
#0593b0:13000023
#059370:0000005300000000
#059380:0000000000000013
#060380:23
#060321:1323000000000000
#060380:0013000000000000
#0603b0:0000002300000000
#060351:0000001300000000
#060321:0000000000230000
#060381:00000013
#0613b1:23
#062361:13
#062321:0023
#062370:0013
#0633b0:23
#063321:13000023
#063361:0000005300000000
#063351:0000000000000013
#064351:23
#0643b0:1323000000000000
#064351:0013000000000000
#064321:0000002300000000
#064380:0000001300000000
#0643b0:0000000000230000
