This file was generated by Ched 2.6.4.0.
#TITLE ""
#ARTIST ""
#DESIGNER ""
#DIFFICULTY 0
#PLAYLEVEL
#SONGID ""
#WAVE ""
#WAVEOFFSET 0
#JACKET ""
#REQUEST "ticks_per_beat 480"
#00002: 4
#BPM01: 160
#00008: 01
#TIL00: ""
#HISPEED 00
#MEASUREHS 00
#0001b:1300130000000013
#00012:0013000000001300
#00015:00000000000013000013000000000000
#00018:00000000000000130000130000000000
#0031b:13
#00318:0000130000000013
#00312:00000013
#00412:13
#00712:13
#00715:0000130000000013
#0071b:00000013
#0081b:13
#00818:0000000000130000
#00815:00000013
#0051b:13
#00517:0000001300000000
#00510:41
#00912:0013001300000000
#00918:0000130000000013
#00915:0000000000130000
#0091b:2300000000130000
#01012:1300130000140000
#01018:0013001300000000
#01016:00000014
#0101a:0000000000000014
#01115:0013001300000013
#0111b:00130000
#01118:0000000000130000
#01112:0000000000130000
#0121b:0013000000130000
#01212:00130000
#01218:0000001300000000
#01215:0000000000130000
#01418:1300000000130000
#01415:0013000000001300
#0141b:00130000
#01412:0000001300000000
#0141a:0000000000000014
#01512:0014000000000000
#0151a:0000001400000000
#01515:0000000000130000
#01518:00000013
#01510:41
#01618:0000000000130013
#01612:00000013
#01812:0000001300000000
#01818:0013
#01814:0000000000130000
#0181a:00000013
#01816:0000000000000013
#0201b:0000001300000000
#02015:0013
#02019:0000000000130000
#02013:00000013
#02017:0000000000000013
#0211b:0000000000130000
#02112:0000000000000013
#02212:0000000000130000
#0221b:0000000000000013
#02318:0000001300000000
#02514:0000140000140000
#02518:00000013
#0251a:2400002400000000
#0251f:21
#02618:00130000
#02615:0000001300000000
#02610:41
#02718:0000001300000000
#02715:0000000000130013
#0271b:00000013
#02818:1300000000130000
#02815:00000013
#0281b:0000000000000013
#02918:0000140000140000
#02915:00000013
#02912:2400002400000000
#03015:00131300
#03018:0000001300000000
#0301b:0000000000130013
#03012:00000013
#0311b:00000013
#03115:1300000000000013
#03118:0013000000000000
#03112:0000001300000000
#03218:1300000000000013
#03212:0013000000000000
#03215:00000013
#03518:1300000000000013
#0351b:00130000
#03515:00000013
#03618:0000001300000000
#03615:0000000000130000
#0361b:00000013
#03612:0000000000000013
#03915:1300000000000013
#03912:00130000
#03918:00000013
#04018:1300000000130000
#04015:00000013
#04114:00140000
#04112:0000000000140000
#0411b:00000013
#0411a:24
#04118:0000002400000000
#04218:00130000
#04212:0000001300000000
#04418:0000000000130000
#04415:0013000000001300
#0441b:1300000000000013
#04518:00140000
#0451a:0000000000140000
#04515:00000013
#04512:24
#04514:0000002400000000
#04612:00131300
#04618:0000001300000000
#0461b:0000000000130013
#04615:00000013
#04318:0000001300001300
#04312:0000000000130000
#04315:0000000000000013
#0491a:24140000
#04918:00000013
#04912:0000002400140000
#04915:0000000000000013
#05018:00131300
#05012:0000001300000000
#0521b:1300000000130000
#05215:00000013
#05218:0000000000000013
#05212:0013000000000000
#05415:00131300
#05418:0000000000130013
#05412:00000013
#0541b:0000001300000000
#0551b:0013000000001300
#05518:0000000000000013
#05515:13
#05512:0000001300000000
#05615:1313
#05612:0013000000001300
#05618:0000001300000013
#0561b:0000000000130000
#05610:41
#05118:0000001300001300
#05115:1300000000130000
#05112:0000000000000013
#05312:24140000
#05315:00000013
#0531a:0000002400140000
#05318:0000000000000013
#0011b:0013000000001300
#00112:2300130000000013
#00118:00000000000013000013000000000000
#00115:00000000000000130000130000000000
#04712:13000013
#04718:0013000000000013
#04715:0000001300000000
#04710:41
#04815:1300000000000013
#0481b:0013000000000000
#04818:00000013
#0591b:13
#05918:0000130000000013
#05912:00000013
#06015:1300000000130000
#0601b:0013000000000000
#0611b:13
#06117:0000001300000000
#05815:0013
#05818:13
#06312:13
#06315:0000130000000013
#0631b:00000013
#06418:13
#06412:0013000000000014
#0641a:0000000000140000
#06416:00000014
#06218:0013
#06215:13
#03313:1414141414140000
#03314:00140000001400000014000000000000
#03312:00000014000000140000001400000000
#01316:0000000014340000
#02418:0013
#02415:00000013
#03719:1414141414140000
#03718:00140000001400000014000000000000
#0371a:00000014000000140000001400000000
#03710:41
#05713:1414141414140000
#05714:00140000001400000014000000000000
#05712:00000014000000140000001400000000
#0171f:11
#0035b:63
#00358:00230000
#00752:53
#00755:00230000
#0055b:63
#00557:0000002300000000
#0255a:1400001400000000
#02855:0000001300000000
#02952:1400001400000000
#03558:53
#0355b:00230000
#03955:63
#03952:00230000
#0415a:14
#04158:0000001400000000
#04552:14
#04554:0000001400000000
#04452:0000001300000000
#04455:0063000000000000
#05252:0053000000000000
#05255:0000001300000000
#0495a:14
#04952:0000001400000000
#04955:0000000000000063
#05352:14
#0535a:0000001400000000
#05358:0000000000000053
#05058:0053
#05155:63
#0595b:63
#05958:00230000
#0615b:63
#06157:0000002300000000
#05858:53
#05855:0063
#0605b:0063000000000000
#06055:0000000000630000
#06352:53
#06355:00230000
#06258:0053
#06255:63
#06452:0053000000000000
#03353:5454545454540000
#03354:00240000002400000024000000000000
#03352:00000024000000240000002400000000
#01356:0024
#03152:0000001300000000
#04755:0000001300000000
#05552:0000001300000000
#03759:6464646464640000
#03758:00240000002400000024000000000000
#0375a:00000024000000240000002400000000
#05753:5454545454540000
#05754:00240000002400000024000000000000
#05752:00000024000000240000002400000000
#002390:13230000
#002340:00001323
#0033b0:1323
#003380:00530000
#004380:0013000000000000
#0043b0:0000002300000000
#004350:0000000000130000
#004320:0000000000000023
#0053b0:13000023
#005370:0000005300000000
#006340:13230000
#006390:00001323
#007320:1323
#007350:00530000
#008350:0013000000000000
#008320:0000002300000000
#013360:0014343454340000
#013340:00000028
#015350:0000000000000013
#016350:00230000
#017320:13
#017350:0000002300000000
#017380:0013
#0183b0:23
#0193b0:13
#019380:0000002300000000
#019350:0013
#020320:23
#021320:13
#021350:0000002300000000
#0223b0:13
#022380:0000002300000000
#023350:13
#024350:23
#023381:0013
#024381:23
#025351:0000000000000013
#026321:0023000000000000
#026381:0013
#0263b1:00000023
#027321:13
#027351:00230000
#028321:0013000000000000
#028351:0000002300000000
#029381:0000000000000013
#0303b1:0023000000000000
#032381:0000001300230000
#033331:1454545454542400
#033341:00540000005400000054000000000000
#033321:00000054000000540000005400000000
#0343b1:13
#034381:00230000
#034351:0013
#034321:00000023
#035381:1323
#0353b1:00530000
#036351:13230000
#037391:1454545454542400
#037381:00540000005400000054000000000000
#0373a1:00000054000000540000005400000000
#038321:13
#038351:00230000
#038381:0013
#0383b1:00000023
#039351:1323
#039321:00530000
#040351:0013002300000000
#041321:0000000000000013
#042351:0023000000000000
#0423b1:0013
#042381:00000023
#043351:13
#043321:00230000
#044351:0013000000000000
#044321:0000002300000000
#0453b1:0000000000000013
#046381:0023000000000000
#048351:0000001300230000
#049351:0000000000000013
#050321:0023000000000000
#050381:0013
#0503b1:00000023
#051351:13
#051321:00230000
#052321:0013000000000000
#052351:0000002300000000
#053381:0000000000000013
#0543b1:0023000000000000
#057331:1454545454542400
#057341:00540000005400000054000000000000
#057321:00000054000000540000005400000000
#058381:13
#0583b1:00230000
#058351:0013
#058321:00000023
#0593b1:1323
#059381:00530000
#0603b1:0013000000000000
#060381:0000002300000000
#060351:0000000000130000
#060321:0000000000000023
#0613b1:13000023
#061371:0000005300000000
#062351:13
#062321:00230000
#062381:0013
#0623b1:00000023
#063321:1323
#063351:00530000
#064321:0013000000000000
#064351:0000002300000000
