This file was generated by Ched 2.6.4.0.
#TITLE ""
#ARTIST ""
#DESIGNER ""
#DIFFICULTY 0
#PLAYLEVEL
#SONGID ""
#WAVE ""
#WAVEOFFSET 0
#JACKET ""
#REQUEST "ticks_per_beat 480"
#00002: 4
#BPM01: 160
#00008: 01
#TIL00: ""
#HISPEED 00
#MEASUREHS 00
#0011b:23000000130000000013130000001300
#00115:2300130000130013
#00112:00000000000013130000000000000000
#00118:00001300000000130000000013000000
#00212:13000013
#00216:00130000
#00219:0013001300000000
#0021b:00131300
#00217:00000013
#00214:0000000000130013
#00316:13
#0031b:0013000000001300
#00318:00130000
#00315:0000000000000013
#00417:1300001300000000
#00412:1300000000000013
#0041b:00001300000000000000001300001300
#00419:00130000
#00416:0013000000131300
#00414:0013
#01317:00001414141400000000000000000000
#01312:23
#0131b:23
#01415:14141414000000000000000000000000
#01416:0000000000130013
#01418:00000014
#0141b:0000000000130013
#00515:00001300000000130000000013000000
#00512:13000000130000000013130000001300
#00518:1300130000130013
#0051b:00000000000013130000000000000000
#00510:41
#0061b:13000013
#00617:00130000
#00614:0013001300000000
#00612:00131300
#00616:00000013
#00619:0000000000130013
#00717:13
#00712:0013000000001300
#00715:00130000
#00718:0000000000000013
#00918:00001300000000000000130000000013
#00915:00000013000013000000000000000000
#00912:2300000013000013
#0091b:23000013
#01018:00130000001300000000000000000000
#0101b:00000013000013000000000000000000
#01012:0013001300000000
#01016:0000000000000013
#01017:0000000000130000
#01015:13130000
#0111b:0000000013000013
#01115:0013000000130000
#01112:00000013
#01118:00000013000013000000000000000000
#01212:0013001300001300
#0121b:0000130000130000
#01214:0000000000130000
#01219:00000013000000000000000000000000
#01215:00130000
#01216:0013
#01217:00000013
#01618:0013000000130000
#0161b:00000000130000001300001300000000
#01616:00000013
#01619:00000000000000000000000000130000
#01617:00000000000000000000000000000013
#01614:0000000000000013
#01612:0013
#01615:0000001300000000
#01712:2300001300001300
#0171b:1313
#01716:0013
#01717:00000013000000000000000013000000
#0171f:11
#01518:00000014
#01516:1400000014130000
#0151b:0000000000130013
#01517:0013001300000000
#01514:00140000
#01512:0013001300000000
#01510:41
#01817:0013000000000000
#01818:00000000000000000013000000000000
#01812:0023002313160000
#0181b:2300002300000000
#0191b:0000001300000000
#01912:0000001300000000
#01914:001a000000000000
#01918:22
#02016:00001300000000150000000000000000
#02017:1300002300230000
#0201b:0023000000001300
#02012:23000023
#0411a:24140014
#04112:0000002400140014
#04117:0000000000000014
#04115:00000014
#04512:24140014
#0451a:0000002400140014
#04515:0000000000000014
#04517:00000014
#04916:0000000000000014
#04914:13
#04912:00150000000000000000000000000000
#0491a:0000000000000014
#05012:14
#05016:14000026
#05014:0000000000260000
#02118:0013000000000013
#02115:00000000000013000000130000000013
#02116:00140014
#02112:2414
#0211a:24000013000000000000000000000000
#02117:00000000000000130000000000000000
#02113:00000000000000000000001300000000
#0231b:0000000000000013
#02313:00000000000000000000000000130000
#02319:0000130000130000
#02315:00000000000013000013000000000000
#02318:0013
#02314:00001300000000000000001300000000
#0231a:24000013
#02312:24000000000000000000000000000013
#02514:0013000000001300
#02517:00000013000013000000000000001300
#02512:0000132400000013
#02516:13000000000000000013000000000000
#02519:00001313
#0251b:0000000000130000
#0251a:24
#0251f:21
#0261b:13000023
#02616:13
#02618:0000001300000000
#0261a:00130000
#02615:00130000
#02612:0000000000230000
#02610:41
#02718:00000000130000000000001300000000
#0271b:0013000000001300
#02719:13
#02714:0000001300000000
#02712:0000000013000013
#02715:0000000000131300
#02717:0000000000000013
#0281b:1300130000130000
#02816:1300130000130000
#02812:0013001300000000
#02819:00000013
#02817:0013000000000013
#02814:00000033
#02919:0013000000001300
#02916:00000013000013000000000000001300
#0291b:0000130000000013
#02917:13000000000000000013000000000000
#02914:00001313
#02912:2400000000130000
#0291a:0000002400000000
#03012:13000023
#03017:13
#03015:0000001300000000
#03013:00130000
#03018:0000130000000013
#0301b:0000000000230000
#03112:00130013
#0311b:1300000000130013
#03115:00130000000000000000000000000013
#03118:00000013
#03218:13
#03212:1300000013130000
#03215:0013000000000000
#0321b:0013000000001300
#03216:0000001300001300
#03219:0000000000000013
#03217:00000000000000000013000000000000
#03214:0000000000000013
#03318:0013000000002300
#0331b:1300230000000013
#03312:0000001300000013000000130000001300000013000000130000001300000013
#03313:13131313131313131313131313131313
#03314:0013000000130000001300000013000000130000001300000013000000130000
#03512:13000000230000130013000000000000
#03516:0013000000001300
#03519:0000000000000013
#03514:0000000000000013
#0351b:0013001300132300
#03518:00000000000000130000000000000000
#03517:00130000
#03515:0000000000130000
#03616:13
#03612:0013000000130000
#0361b:00131300
#03617:0000001300000000
#03618:0013000000001300
#03615:0000000013000013
#03914:0000000000000013
#03919:0000000000000013
#0391b:13000000230000130013000000000000
#03917:0013000000001300
#03912:0013001300132300
#03915:00000000000000130000000000000000
#03916:00130000
#03918:0000000000130000
#04012:0013000013001300
#04016:13130000
#0401b:13000000130013000000001300000000
#04017:0013
#04015:0000000000130000
#04018:0013000000001300
#02215:0013000000000013
#02218:00000000000013000000130000000013
#02216:00000000140000130000000014000000
#0221a:24000000000000001400001300000000
#02213:00000013000000000000000000000000
#02212:24
#0421a:14
#04215:14000024
#04216:0000001400000000
#04212:00140000
#04218:00140000
#04217:0000000000240000
#04319:00130000
#0431b:0013000000001313
#04317:13000000000000000000001300000000
#04316:0000001300000013
#04312:00001313
#04314:0000000000130000
#04615:0000000000240013
#04612:14
#04617:14000024
#04616:0000001400000000
#0461a:00140000
#04614:00140000
#0471b:00130013
#04712:1300000000130013
#04718:00130000000000000000000000000013
#04715:00000013
#04710:41
#04815:13
#0481b:1300000013130000
#04818:0013000000000000
#04812:0013000000001300
#04817:0000001300001300
#04816:0000000000130000
#04814:0000000000000013
#04819:0000000000000013
#05512:0000131300001300
#0551b:0013000000131300
#05517:00130000
#05516:0013
#05515:00130000000000000000000000001300
#05518:13000000000000000000000000000013
#0541b:0000000000000013
#0541a:14
#05416:1400000000260000
#05414:00000026
#05612:1300001300001300
#0561b:13000000000000000013000000000013
#05619:0013000000000000
#05614:0013000000000000
#05616:00000000000000001300000000150000
#05615:0000000000140015
#05617:00000000000000130000001400000000
#05610:41
#05715:0013000000002300
#05712:1300230000000013
#05719:0000001300000013000000130000001300000013000000130000001300000013
#0571a:13131313131313131313131313131313
#0571b:0013000000130000001300000013000000130000001300000013000000130000
#05917:1300230000001313
#05912:00000000130000130000130023001300
#0591b:00001300000000130000130000000000
#05915:0013001300000000
#05918:00000000000000000013000000000000
#06019:00000000000000000000001300000000
#06016:1313000000000000
#0601b:1323000013002300
#06018:0000231300000013
#06012:0000130000130000
#06015:0013
#03715:0013000000002300
#03712:1300230000000013
#0371b:0000001300000013000000130000001300000013000000130000001300000013
#0371a:13131313131313131313131313131313
#03719:0013000000130000001300000013000000130000001300000013000000130000
#03710:41
#05816:13230000
#0581b:0013130000000000
#05817:0000001300000000
#05812:0013000000000000
#05815:0000000000230000
#05818:00000023
#06118:00001300230000000013130000000000
#06115:00000000000013130000000023001300
#0611b:13000000000000130000000000001300
#06112:0000230000130000
#0631b:00000000130000130000130023001300
#06316:1300230000001313
#06312:00001300000000130000130000000000
#06318:0013001300000000
#06315:00000000000000000013000000000000
#06415:0000231300000013
#06412:1323000013001300
#06417:1313000000000000
#0641b:0000130000130013
#06418:00001313
#06414:00000000000000000000001300000000
#0511b:0013001300130000
#05114:00000000000000000000001300001300
#05117:13001313
#05112:13131313
#05119:0000000000000013
#05116:0013001300000000
#00816:1300001300000000
#0081b:1300000000000013
#00812:00001300000000000000001300001300
#00814:00130000
#00817:0013000000131300
#00819:0013
#05314:13
#05312:00150000000000000000000000001400
#05316:0000000000000014
#02418:0000000000140000
#02414:00000014
#02416:00140000140000140000000000000000
#0241b:13
#02412:00000013000000001400000000000000
#0241a:0000001400000000
#06217:13230000
#0621b:0013000000000000
#06212:0013130000000000
#06216:0000001300000000
#06218:0000000000230000
#06215:00000023
#0381b:0013000000002300
#03812:00230000
#03814:0000000000230000
#03412:0013000000002300
#0341b:00230000
#03419:0000000000230000
#05217:0000001300000000
#05212:0013000000000013
#05216:1300130000130000
#05214:00000013
#0521b:1300130000130000
#05218:0013000000000000
#05219:00000033
#0441b:0013001300000000
#04416:0013000000000013
#04412:1300130000130000
#04414:00000013
#04417:1300130000130000
#04419:00000033
#00012:0000001300000013
#00018:00000000130000130000000013000000
#00015:0013000000130000
#0001b:13000000000000000013000000000000
#00252:53
#00256:00230000
#0025b:0063
#00257:00000023
#00356:63
#0065b:63
#00657:00230000
#00652:0053
#00656:00000023
#00757:53
#00456:0063000000000000
#00457:0000005300000000
#00955:0000006300000000
#00952:1323
#00958:0000000000530000
#0095b:13000023
#0115b:0000000023000063
#01155:0000000000630000
#01152:00000023
#01158:0000005300000000
#01252:0000005300002300
#01254:0000000000630000
#0125b:0000000000630000
#01256:0023
#01257:00000023
#0175b:63
#01756:0063
#01752:00000023
#01757:00000023000000000000000000000000
#01958:52
#01954:002a000000000000
#0205b:00000023
#02052:00000023
#02057:0000005300530000
#02056:00000000000000250000000000000000
#0415a:14
#04152:0000001400000054
#04157:0000000000000054
#04552:14
#0455a:0000001400000064
#04555:0000000000000064
#04956:0000000000000064
#04954:53
#04952:00250000000000000000000000000000
#0495a:0000000000000064
#05052:24
#05056:24000046
#05054:0000000000360000
#0255a:14
#02552:0000001400000053
#02557:0000000000000053
#0265b:23000013
#02656:23
#02652:0000000000130000
#02857:0053003300000000
#0285b:63230000
#02852:0000005300000000
#02856:0000000000230000
#02956:0000000000000063
#0295b:0000000000000063
#02952:14
#0295a:0000001400000000
#03052:23000013
#03057:23
#0305b:0000000000130000
#03157:0000004300000000
#03556:0023000000000000
#03552:53330000
#0355b:00000013
#03656:63
#03652:0023000000000000
#03657:0000005300000000
#0365b:0023
#04052:0053000000000000
#04056:00230000
#0405b:0000006300000000
#04057:0023
#0425a:24
#04255:24000014
#04257:0000000000140000
#04756:0000003300000000
#0555b:0063004300000000
#05557:00230000
#05556:0023
#05552:0000005300000000
#05856:63430000
#0585b:00630000
#05858:00000013
#05855:0000000000130000
#05857:0000002300000000
#05852:0023000000000000
#0595b:0023000000000000
#05957:53330000
#05952:00000013
#06455:0000006300000000
#06452:0023
#06457:0053000000000000
#0645b:00230000
#00857:0053000000000000
#00856:0000006300000000
#05354:53
#05352:00250000000000000000000000005400
#05356:0000000000000054
#05156:0000006300000000
#05152:0023
#05157:53
#0515b:0023000000000000
#02454:00000014
#02458:0000000000140000
#02452:00000013000000000000000000000000
#0245b:13
#0345b:00130000
#03459:0000000000130000
#03452:00000013
#0395b:63430000
#03957:0023000000000000
#03952:00000013
#03852:00130000
#03854:0000000000130000
#0385b:00000013
#06257:53330000
#0625b:0023000000000000
#06252:00530000
#06256:0000002300000000
#06258:0000000000130000
#06255:00000013
#06352:0023000000000000
#06356:63430000
#0635b:00000013
#0545a:24
#05456:2400000000460000
#05454:00000036
#0185b:0000006300000000
#01858:00000000000000000023000000000000
#01852:0000000063260000
#05257:0000005300000000
#05252:0053003300000000
#05256:63230000
#0525b:0000000000230000
#04652:24
#04657:24000014
#04655:0000000000140000
#0445b:0000006300000000
#04456:0063004300000000
#04452:53230000
#04457:0000000000230000
#06058:0000005300000000
#0605b:0023
#06056:0063000000000000
#06052:00230000
#03352:0000002300000023000000230000002300000023000000230000002300000023
#03353:63636363636363636363636363636363
#03354:0023000000230000002300000023000000230000002300000023000000230000
#0375b:0000002300000023000000230000002300000023000000230000002300000023
#0375a:53535353535353535353535353535353
#03759:0023000000230000002300000023000000230000002300000023000000230000
#05759:0000002300000023000000230000002300000023000000230000002300000023
#0575a:63636363636363636363636363636363
#0575b:0023000000230000002300000023000000230000002300000023000000230000
#002320:1323
#002360:00530000
#0023b1:0013
#002371:00000053
#0033b1:23
#003360:13
#003320:00000023
#0033b1:00000000000013230000000000000000
#003381:00000000000000000013230000000000
#004360:0013000000000000
#004320:0000002300000000
#004371:0000001300000000
#0043b1:0000000000230000
#0063b1:1323
#006371:00530000
#006320:0013
#006360:00000053
#007320:23
#007371:13
#0073b1:00000023
#007320:00000000000013230000000000000000
#007350:00000000000000000013230000000000
#008371:0013000000000000
#0083b1:0000002300000000
#008360:0000001300000000
#008320:0000000000230000
#0093b0:0000132300000000
#009351:0000001300230000
#009321:0053
#009380:0000000000130023
#0093b0:00000053
#010320:0000000000130000
#010350:00000023
#010381:00000013
#0103b1:0000000000000023
#011321:0000132300000000
#011380:0000001300230000
#0113b0:0053
#011351:0000000000130023
#011321:00000053
#0113b0:0000000000000013
#012370:0023000000000000
#012320:0000001300005300
#012360:0000000053000023
#012340:0000000000330000
#0123b1:0000000000130023
#012371:00000053
#013391:0000001200000000
#0133c1:0022
#013370:0000001200000000
#013340:0022
#013320:0000000000130023
#013360:00000033
#0133b1:0000000000130023
#013371:000000000000000000000000000000000000000000000000000000000000000000000000000000000000000000000000000000000000000000000000000000000000000000000000000000000000000000000000000000000000000000000000000000000000000000000000000000000000000000000000000000000000000000000000000000000000000000000000000000000000000000000000000000000000000000000000000000000000000000000000000000000000000000000000000000000000000000000000000000000000000000000000000000000000000000000000000000000000000000000000000000000000000000000000000000000000000000000000000000000000000000000000000000000000000000000000000000000000000000000000000000000000000000000000000000000000000000000000000000000000000000000000000000000000000000000000000000000000000000000000000000000000000000000000000000000000000000000000000000000000000000000000000000000000000000000000000000000000000000000000000000000000000000000000000000000000000000000000000000000000000000000000000000000000000000000000000000000000000000000000000000000000000000000000000000000000000000000000000000000000000000000000000000000000000000000000000000000000000000000000000000000000000000000000000000000000000000000000000000000000000000000000000000000000000000000000000000000000000000000000000000000000000000000000000000000000000000000000000000000000000000000000000000000000000000000000000000000000000000000000000000000000000000000000000000000000000000000000000000000000000000000000000000000000000000000000000000000000000000000000000000000000000000000000000000000000000000000000000000000000000000000000000000000000000000000000000000000000000000000000000000000000000000000000000000000000000000000000000000000000000000000000000000000000000000000000000000000000000000000000000000000000000000000000000000000000000000000000000000000000000000000000000000000000000000000000000000000000000000000000000000000000000000000000000000000000000000000000000000000000000000000000000000000000000000000000000000000000000000000000000000000000000000000000000000000000000000000000000000000000000000000000000000000000000000000000000000000000000000000000000000000000000000000000000000000000000000000000000000000000000000000000000000000000000000000000000000000000000000000000000000000000000000000000000000000000000000000000000000000000000000000000000000000000000000000000000000000000000000000000000000000000000000000000000000000000000000000000000000000000000000000000000000000000000000000000000000000000000000000000000000000000000000000000000000000000000000000000000000000000000000000000000000000000000000000000000000000000000000000000000000000000000000000000000000000000000000000000000000000000000000000000000000000000000000000000000000000000000000000000000000000000000000000000000000000000000000000000000000000000000000000000000000000000000000000000000000000000000000000000000000000000000000000000000000000000000000000000000000000000000000000000000000000000000000000000000000000000000000000000003300000000000000000000000000000000000000000000000000000000000000000000000000000000000000000000000000000000000000000000000000000000000000000000000000000000000000000000000000000000000000000000000000000000000000000000000000000000000000000000000000000000000000000000000000000000000000000000000000000000000000000000000000000000000000000000000000000000000000000000000000000000000000000000000000000000000000000000000000000000000000000000000000000000000000000000000000000000000000000000000000000000000000000000000000000000000000000000000000000000000000000000000000000000000000000000000000000000000000000000000000000000000000000000000000000000000000000000000000000000000000000000000000000000000000000000000000000000000000000000000000000000000000000000000000000000000000000000000000000000000000000000000000000000000000000000000000000000000000000000000000000000000000000000000000000000000000000000000000000000000000000000000000000000000000000000000000000000000000000000
#014351:00120000
#014321:0000002200000000
#014370:00120000
#0143a0:0000002200000000
#015360:0000000000000013
#016320:00230000
#0173b0:1300002300000000
#017370:00000053000000000000000000000000
#017360:0013
#017320:00000053
#018360:23
#018320:0000001353562300
#0183b1:0000001300002300
#018381:00000000000000000053000000000000
#019381:12220000
#019341:005a000000000000
#019320:16260000
#019320:0013
#019350:00000023
#0193b1:0013
#019381:00000023
#020371:0000001323000000
#020361:00000000000000550000000000000000
#020371:0000000000130000
#0203b1:00000033
#020381:0000000000000023
#020320:00000013
#020350:0000000000000023
#025370:0000000000000013
#0263b0:53
#026370:0023000000000000
#025321:0000000000000013
#026361:53
#026321:0023000000000000
#026361:0013
#026321:0000000000230000
#0263b0:00001323
#026370:0000000000530000
#027360:13
#027320:0053230000000000
#027370:0000001300000000
#0273b0:0000000053230000
#0283b0:13530000
#028370:0033002300000000
#028321:0000001300000023
#028361:0000000000330000
#028341:00000033
#029361:0000000000000013
#030321:53
#030361:0023000000000000
#0293b0:0000000000000013
#030370:53
#0303b0:0023000000000000
#030370:0013
#0303b0:0000000000230000
#030321:00001323
#030361:0000000000530000
#0313b1:0013000000000000
#031371:0000002300000000
#031320:0000001300000000
#031360:0000000000230000
#0323b0:0000001300000000
#032370:0023
#033330:13535353535353535353535353535353
#033340:0053000000530000005300000053000000530000005300000053000000530000
#033320:0000005300000053000000530000005300000053000000530000005300000053
#034330:23
#033381:00000000000013230000000000000000
#0333b1:00000000000000000013230000000000
#034371:13
#0343b1:00230000
#034320:00130000
#034360:0023
#034391:0000000013230000
#034320:0000000000132300
#0343b1:00000013
#035371:23
#035320:13230000
#035360:0053000000000000
#036360:13230000
#036320:0053000000000000
#036370:0000001300230000
#0363b0:0053
#0373a0:13535353535353535353535353535353
#037390:0053000000530000005300000053000000530000005300000053000000530000
#0373b0:0000005300000053000000530000005300000053000000530000005300000053
#0383a0:23
#037351:00000000000013230000000000000000
#037321:00000000000000000013230000000000
#038361:13
#038321:00230000
#0383b0:00130000
#038370:0023
#038341:0000000013230000
#0383b0:0000000000132300
#038321:00000013
#039361:23
#0393b0:13230000
#039370:0053000000000000
#040320:0013002300000000
#040360:00530000
#0403b1:0000001300230000
#040371:0053
#041321:170057000057005700005700270000000000000000000000000000000000000000000000000000000000000000000000
#041351:000000000000000000000000000000000000000000000000000000000000000000000000000000000000000000000000000000000000000000000000000000000000000000000000000000000000000000540000000000000000000000000000000000000000000000000000000000000000000000000000000000000000000000000000000000000000000000000000000000000000000000000000000000000000000000000000000000000000000000000000000000000000000000000000000000000000540000000000000000000000000000000000000000000000000000000000000000000000000000000000000000000000000000000000000000000000000000000000000000000000000000000000000000000054000000000000000000000000000000000000000000000000000000000000000000000000000000000000000000000000000000000000000000000000000000000000000000000000000000000000000000000000000000000000000000000000000000000000000000000000000000000000000000540000000000000000000000000000000000000000000000000000000000000000000000000000000000000000000000000000000000000000000000000000000000000000000000000000000000000000000000000000000000000000000000000000000000000000000000000000000000000000000000000000000000000000000000000000000000000000000000000000000000000000000000000000000000000000000000000000000000000000000000000000000000000000000000000000000000000000000000000000000000000000000000000000000000000000000000000000000000000000000000000000000000000000000000000000000000000000000000000000000000000000000000000000000000000000000000000000000000000000000000000000000000000000000000000000000000000000000000000000000000000000000000000000000000000000000000000000000000000000000000000000000000000000000000000000000000000000000000000000000000000000000000000000000000000000000000000000000000000000000000000000000000000000000000000000000000000000000000000000000000000000000000000000000000000000000000000000000000000000000000000000000000000000000000000000000000000000000000000000000000000000000000000000000000000000000000000000000000000000000000000000000000000000000000000000000000000000000000000000000000000000000000000000000000000000000000000000000000000000000000000000000000000000000000000000000000000000000000000000000000000000000000000000000000000000000000000000000000000000000000000000000000000000000000000000000000000000000000000000000000000000000000000000000000000000000000000000000000000000000000000000000000000000000000000000000000000000000000000000000000000000000000000000000000000000000000000000000000000000000000000000000000000000000000000000000000000000000000000000000000000000000000000000000000000000000000000000000000000000000000000000000000000000000000000000000000000000000000000000000000000000000000000000000000000000000000000000000000000000000000000000000000000000000000000000000000000000000000000000000000000000000000000000000000000000000000000000000000000000000000000000000000000000000000000000000000000000000000000000000000000000000000000000000000000000000000000000000000000000000000000000000000000000000000000000000000000000000000000000000000000000000000000000000000000000000000000000000000000000000000000000000000000000000000000000000000000000000000000000000000000000000000000000000000000000000000000000000000000000000000000000000000000000000000000000000000000000000000000000000000000000000000000000000000000000000000000000000000000000000000000000000000000000000000000000000000000000000000000000000000000000000000000000000000000000000000000000000000000000000000000000000000000000000000000000000000000000000000000000000000000000000000000000000000000000000000000000000000000000000000000000000000000000000000000000000000000000000000000000000000000000000000000000000000000000000000000000000000000000000000000000000000000000000000000000000000000000000000000000000000000000000000000000000000000000000000000000000000000000000000000000000000000000000000000000000000000000000000000000000000000000000000000000000000000000000000000000000000000000000000000000000000000000000000000000000000000000
#041371:0000000000000000000000001757000057000000270000000000000000000000
#0413a1:000000000000000000000000000000000000000000000000000000000000000000000000000000000000000000000000000000000000000000000000000000000000000000000000000000000000000000000000000000000000000000000000000000000000000000000000000000000000000000000000000000000000000000000000000000000000000000000000000000000000000000000000000000000000000000000000000000000000000000000000000000000000000000000000000000000000000000000000000000000000000000000000000000000000000000000000000000000000000000000000000000000000000000000000000000000000000000000000000000000000000000000000000000000000000000000000000000000000000000000000000000000000000000000000000000000000000000000000000000000000000000000000000000000000000000000000000000000000000000000000000000000000000000000000000000000000000000000000000000000000005400000000000000000000000000000000000000000000000000000000000000000000000000000000000000000000000000000000000000000000000000000000000000000000000000000000000000000000000000005400000000000000000000000000000000000000000000000000000000000000000000000000000000000000000000000000000000000000000000000000000000000000000000000000000000000000000000000000000000000000000000000000000000000000000000000000000000000000000000000000000000000000000000000000000000000000000000000000000000000000000000000000000000000000000000000000000000000000000000000000000000000000000000000000000000000000000000000000000000000000000000000000000000000000000000000000000000000000000000000000000000000000000000000000000000000000000000000000000000000000000000000000000000000000000000000000000000000000000000000000000000000000000000000000000000000000000000000000000000000000000000000000000000000000000000000000000000000000000000000000000000000000000000000000000000000000000000000000000000000000000000000000000000000000000000000000000000000000000000000000000000000000000000000000000000000000000000000000000000000000000000000000000000000000000000000000000000000000000000000000
#041371:0000000000000014
#0423a1:54
#042371:0024000000000000
#041320:0000000000000014
#042350:54
#042320:0024000000000000
#0423a0:0014
#042370:0000000000240000
#042351:00001424
#042321:0000000000540000
#043321:13
#043361:0053230000000000
#0433b1:0000001300000000
#043371:0000000053230000
#044321:13530000
#044361:0033002300000000
#0443b0:0000001300000023
#044370:0000000000330000
#044390:00000033
#045370:170057000057005700005700270000000000000000000000000000000000000000000000000000000000000000000000
#0453a0:000000000000000000000000000000000000000000000000000000000000000000000000000000000000000000000000000000000000000000000000000000000000000000000000000000000000000000540000000000000000000000000000000000000000000000000000000000000000000000000000000000000000000000000000000000000000000000000000000000000000000000000000000000000000000000000000000000000000000000000000000000000000000000000000000000000000540000000000000000000000000000000000000000000000000000000000000000000000000000000000000000000000000000000000000000000000000000000000000000000000000000000000000000000054000000000000000000000000000000000000000000000000000000000000000000000000000000000000000000000000000000000000000000000000000000000000000000000000000000000000000000000000000000000000000000000000000000000000000000000000000000000000000000540000000000000000000000000000000000000000000000000000000000000000000000000000000000000000000000000000000000000000000000000000000000000000000000000000000000000000000000000000000000000000000000000000000000000000000000000000000000000000000000000000000000000000000000000000000000000000000000000000000000000000000000000000000000000000000000000000000000000000000000000000000000000000000000000000000000000000000000000000000000000000000000000000000000000000000000000000000000000000000000000000000000000000000000000000000000000000000000000000000000000000000000000000000000000000000000000000000000000000000000000000000000000000000000000000000000000000000000000000000000000000000000000000000000000000000000000000000000000000000000000000000000000000000000000000000000000000000000000000000000000000000000000000000000000000000000000000000000000000000000000000000000000000000000000000000000000000000000000000000000000000000000000000000000000000000000000000000000000000000000000000000000000000000000000000000000000000000000000000000000000000000000000000000000000000000000000000000000000000000000000000000000000000000000000000000000000000000000000000000000000000000000000000000000000000000000000000000000000000000000000000000000000000000000000000000000000000000000000000000000000000000000000000000000000000000000000000000000000000000000000000000000000000000000000000000000000000000000000000000000000000000000000000000000000000000000000000000000000000000000000000000000000000000000000000000000000000000000000000000000000000000000000000000000000000000000000000000000000000000000000000000000000000000000000000000000000000000000000000000000000000000000000000000000000000000000000000000000000000000000000000000000000000000000000000000000000000000000000000000000000000000000000000000000000000000000000000000000000000000000000000000000000000000000000000000000000000000000000000000000000000000000000000000000000000000000000000000000000000000000000000000000000000000000000000000000000000000000000000000000000000000000000000000000000000000000000000000000000000000000000000000000000000000000000000000000000000000000000000000000000000000000000000000000000000000000000000000000000000000000000000000000000000000000000000000000000000000000000000000000000000000000000000000000000000000000000000000000000000000000000000000000000000000000000000000000000000000000000000000000000000000000000000000000000000000000000000000000000000000000000000000000000000000000000000000000000000000000000000000000000000000000000000000000000000000000000000000000000000000000000000000000000000000000000000000000000000000000000000000000000000000000000000000000000000000000000000000000000000000000000000000000000000000000000000000000000000000000000000000000000000000000000000000000000000000000000000000000000000000000000000000000000000000000000000000000000000000000000000000000000000000000000000000000000000000000000000000000000000000000000000000000000000000000000000000000000000000000000000000000000000000000000000000000000000000000000000000000000000000000000000000000000000000000000000000000000000
#045320:0000000000000000000000001757000057000000270000000000000000000000
#045350:000000000000000000000000000000000000000000000000000000000000000000000000000000000000000000000000000000000000000000000000000000000000000000000000000000000000000000000000000000000000000000000000000000000000000000000000000000000000000000000000000000000000000000000000000000000000000000000000000000000000000000000000000000000000000000000000000000000000000000000000000000000000000000000000000000000000000000000000000000000000000000000000000000000000000000000000000000000000000000000000000000000000000000000000000000000000000000000000000000000000000000000000000000000000000000000000000000000000000000000000000000000000000000000000000000000000000000000000000000000000000000000000000000000000000000000000000000000000000000000000000000000000000000000000000000000000000000000000000000000000005400000000000000000000000000000000000000000000000000000000000000000000000000000000000000000000000000000000000000000000000000000000000000000000000000000000000000000000000000005400000000000000000000000000000000000000000000000000000000000000000000000000000000000000000000000000000000000000000000000000000000000000000000000000000000000000000000000000000000000000000000000000000000000000000000000000000000000000000000000000000000000000000000000000000000000000000000000000000000000000000000000000000000000000000000000000000000000000000000000000000000000000000000000000000000000000000000000000000000000000000000000000000000000000000000000000000000000000000000000000000000000000000000000000000000000000000000000000000000000000000000000000000000000000000000000000000000000000000000000000000000000000000000000000000000000000000000000000000000000000000000000000000000000000000000000000000000000000000000000000000000000000000000000000000000000000000000000000000000000000000000000000000000000000000000000000000000000000000000000000000000000000000000000000000000000000000000000000000000000000000000000000000000000000000000000000000000000000000000000000
#045350:0000000000000014
#046320:54
#046350:0024000000000000
#0453a1:0000000000000014
#046371:54
#0463a1:0024000000000000
#046321:0014
#046351:0000000000240000
#046370:00001424
#0463a0:0000000000540000
#047320:0013000000000000
#047360:0000002300000000
#0473b1:0000001300000000
#047371:0000000000230000
#048321:0000001300000000
#048361:0023
#049341:130000530053000000000000000000000000000000000000
#049321:000000000000000000000000000000000000000000000000000000000000000000000000000000000000000000000000000000000000000000000000000000000000000000000000000000000000000000000000000000000000000000000000000000000000000000000000000000000000000000000000550000000000000000000000000000000000000000000000000000000000000000000000000000000000000000000000000000000000000000000000000000000000000000000000000000000000000000000000000000000000000000000000000000000000000000000000000000000000000000000000000000000000000000000000000000000000000000000000000000000000000000000000000000000000000000000000000000000000000000000000000000000000000000000000000000000000000000000000000000000000000000000000000000000000000000000000000000000000000000000000000000000000000000000000000000000000000000000000000000000000000000000000000000000055000000000000000000000000000000000000000000000000000000000000000000000000000000000000000000000000000000000000000000000000000000000000000000000000000000000000250000000000000000000000000000000000000000000000000000000000000000000000000000000000000000000000000000000000000000000000000000000000000000000000000000000000000000000000000000000000000000000000000000000000000000000000000000000000000000000000000000000000000000000000000000000000000000000000000000000000000000000000000000000000000000000000000000000000000000000000000000000000000000000000000000000000000000000000000000000000000000000000000000000000000000000000000000000000000000000000000000000000000000000000000000000000000000000000000000000000000000000000000000000000000000000000000000000000000000000000000000000000000000000000000000000000000000000000000000000000000000000000000000000000000000000000000000000000000000000000000000000000000000000000000000000000000000000000000000000000000000000000000000000000000000000000000000000000000000000000000000000000000000000000000000000000000000000000000000000000000000000000000000000000000000000000000000000000000000000000000000000000000000000000000000000000000000000000000000000000000000000000000000000000000000000000000000000000000000000000000000000000000000000000000000000000000000000000000000000000000000000000000000000000000000000000000000000000000000000000000000000000000000000000000000000000000000000000000000000000000000000000000000000000000000000000000000000000000000000000000000000000000000000000000000000000000000000000000000000000000000000000000000000000000000000000000000000000000000000000000000000000000000000000000000000000000000000000000000000000000000000000000000000000000000000000000000000000000000000000000000000000000000000000000000000000000000000000000000000000000000000000000000000000000000000000000000000000000000000000000000000000000000000000000000000000000000000000000000000000000000000000000000000000000000000000000000000000000000000000000000000000000000000000000000000000000000000000000000000000000000000000000000000000000000000000000000000000000000000000000000000000000000000000000000000000000000000000000000000000000000000000000000000000000000000000000000000000000000000000000000000000000000000000000000000000000000000000000000000000000000000000000000000000000000000000000000000000000000000000000000000000000000000000000000000000000000000000000000000000000000000000000000000000000000000000000000000000000000000000000000000000000000000000000000000000000000000000000000000000000000000000000000000000000000000000000000000000000000000000000000000000000000000000000000000000000000000000000000000000000000000000000000000000000000000000000000000000000000000000000000000000000000000000000000000000000000000000000000000000000000000000000000000000000000000000000000000000000000000000000000000000000000000000000000000000000000000000000000000000000000000000000000000000000000000000000000000000000000000000000000000000000000000000000000000000000000000000000000000000000000000000000000000000000000000000000000000000000000000000
#049380:130000000000000000000000000000000000000000000000000000000000000000000000000000000000000000000000000000000000000000000000000000000000000000000000000000000000000000000000000000000000000000000000000000000000000000000000000000000000000000000000000000000000000000000000000000000000000000000000000000000000000000000000000000000000000000000000000000000000000000000053000000000000000000000000000000000000000000000000000000000000000000000000000000000000000000000000000000000000000000000000005300000000000000000000000000000000000000000000000000000000000000000000000000000000000000000000000000000000000000000000000000000000000000000000000000000000000000000000000000000000000000000000000000000000000000000000000000000000000000000000000000000000000000000000000000000000000000000000000000000000000000000000000000000000000000000000000000000000000000000000000000000000000000000000000000000000000000000000000000000000000000000000000000000000000000000000000000000000000000000000230000000000000000000000000000000000000000000000000000000000000000000000000000000000000000000000000000000000000000000000000000000000000000000000000000000000000000000000000000000000000000000000000000000000000000000000000000000000000000000000000000000000000000000000000000000000000000000000000000000000000000000000000000000000000000000000000000000000000000000000000000000000000000000000000000000000000000000000000000000000000000000000000000000000000000000000000000000000000000000000000000000000000000000000000000000000000000000000000000000000000000000000000000000000000000000000000000000000000000000000000000000000000000000000000000000000000000000000000000000000000000000000000000000000000000000000000000000000000000000000000000000000000000000000000000000000000000000000000000000000000000000000000000000000000000000000000000000000000000000000000000000000000000000000000000000000000000000000000000000000000000000000000000000000000000000000000000000000000000000000000000000000000000000000000000000000000000000000000000000000000000000000000000000000000000000000000000000000000000000000000000000000000000000000000000000000000000000000000000000000000000000000000000000000000000000000000000000000000000000000000000000000000000000000000000000000000000000000000000000000000000000000000000000000000000000000000000000000000000000000000000000000000000000000000000000000000000000000000000000000000000000000000000000000000000000000000000000000000000000000000000000000000000000000000000000000000000000000000000000000000000000000000000000000000000000000000000000000000000000000000000000000000000000000000000000000000000000000000000000000000000000000000000000000000000000000000000000000000000000000000000000000000000000000000000000000000000000000000000000000000000000000000000000000000000000000000000000000000000000000000000000000000000000000000000000000000000000000000000000000000000000000000000000000000000000000000000000000000000000000000000000000000000000000000000000000000000000000000000000000000000000000000000000000000000000000000000000000000000000000000000000000000000000000000000000000000000000000000000000000000000000000000000000000000000000000000000000000000000000000000000000000000000000000000000000000000000000000000000000000000000000000000000000000000000000000000000000000000000000000000000000000000000000000000000000000000000000000000000000000000000000000000000000000000000000000000000000000000000000000000000000000000000000000000000000000000000000000000000000000000000000000000000000000000000000000000000000000000000000000000000000000000000000000000000000000000000000000000000000000000000000000000000000000000000000000000000000000000000000000000000000000000000000000000000000000000000000000000000000000000000000000000000000000000000000000000000000000000000000000000000000000000000000000000000000000000000000000000000000000000000000000000000000000000000000000000000000000000000000000
#049370:0000005656000000000000000000000000000000000000000000000000000000
#0493b0:0000001300230000
#049360:0053
#049360:000000000000000000000000000000000000000000000000000000000000000000000000000000000000000000000000000000000000000000000000000000000000000000000000000000000000000000000000000000000000000000000000000000000000000000000000000000000000000000000000000000000000000000000000000000000000000000000000000000000000000000000000000000000000000000000000000000000000000000000000000000000000000000000000000000000000000000000000000000000000000000000000000000000000000000000000000000000000000000000000000000000000000000000000000000000000000000000000000000000000000000000000000000000000000000000000000000000000000000000000000000000000000000000000000000000000000000000000000000000000000000000000000000000000000000000000000000000000000000000000000000000000000000000000000000000000000000000000000000000000000000000000000000000000000000000000000000000000000000000000000000000000000000000000000000000000000000000000000000000000000000000000000000000000000000000000000000000000000000000000000000000000000000000000000000000000000000000000000000000000000000000000000000000000000000000000000000000000000000000000000000000000000000000000000000000000000000000000000000000000000000000000000000000000000000000000000000000000000000000000000000000000000000000000000000000000000000000000000000000000000000000000000000000000000000000000000000000000000000000000000000000000000000000000000000000000000000000000000000000000000000000000000000000000000000000000000000000000000000000000000000000000000000000000000000000000000000000000000000000000000000000000000000000000000000000000000000000000000000000000000000000000000000000000000000000000000000000000000000000000000000000000000000000000000000000000000000000000000000000000000000000000000000000000000000000000000000000000000000000000000000000000000000000000000000000000000000000000000000000000000000000000000000000000000000000000000000000000000000000000000000000000000000000000000000000000000000000000000000000000000000000000000000000000000000000000000000000000000000000000000000000000000000000000000000000000000000000000000000000000000000000000000000000000000000000000000000000000000000000000000000000000000000000000000000000000000000000000000000000000000000000000000000000000000000000000000000000000000000000000000000000000000000000000000000000000000000000000000000000000000000000000000000000000000000000000000000000000000000000000000000000000000000000000000000000000000000000000000000000000000000000000000000000000000000000000000000000000000000000000000000000000000000000000000000000000000000000000000000000000000000000000000000000000000000000000000000000000000000000000000000000000000000000000000000000000000000000000000000000000000000000000000000000000000000000000000000000000000000000000000000000000000000000000000000000000000000000000000000000000000000000000000000000000000000000000000000000000000000000000000000000000000000000000000000000000000000000000000000000000142400000000000000000000000000000000000000000000000000000000000000000000000000000000000000000000000000000000000000000000000000000000000000000000000000000000000000000000000000000000000000000000000000000000000000000000000000000000000000000000000000000000000000000000000000000000000000000000000000000000000000000000000000000000000000000000000000000000000000000000000000000000000000000000000000000000000000000000000000000000000000000000000000000000000000000000000000000000000000000000000000000000000000000000000000000000000000000000000000000000000000000000000000000000000000000000000000000000000000000000000000000000000000000000000000000000000000000000000000000000000000000000000000000000000000000000000000000000000000000000000000000000000000000000000000000000000000000000000000000000000000000000000000000000000000000000000000000000000000000000000000000000000000000000000000000000000000000000000000000000000000000000000000000000000000000000000000000000000000000000
#049360:0000000000000014
#050320:54
#050360:0024000000000000
#0493a1:0000000000000014
#050361:54
#0503a1:0024000000000000
#050321:00143400
#050351:0000003400000000
#050341:0000000000260000
#050360:00152500
#050390:0000003500000000
#0503a0:0000000000140000
#050360:00000026
#051370:13230000
#0513b0:0053000000000000
#051360:0000001300230000
#051320:0053
#052360:13530000
#052320:0033002300000000
#052371:0000001300000023
#0523b1:0000000000330000
#052391:00000033
#053341:130000530053000000000000000000000000000000000000
#053321:000000000000000000000000000000000000000000000000000000000000000000000000000000000000000000000000000000000000000000000000000000000000000000000000000000000000000000000000000000000000000000000000000000000000000000000000000000000000000000000000550000000000000000000000000000000000000000000000000000000000000000000000000000000000000000000000000000000000000000000000000000000000000000000000000000000000000000000000000000000000000000000000000000000000000000000000000000000000000000000000000000000000000000000000000000000000000000000000000000000000000000000000000000000000000000000000000000000000000000000000000000000000000000000000000000000000000000000000000000000000000000000000000000000000000000000000000000000000000000000000000000000000000000000000000000000000000000000000000000000000000000000000000000000055000000000000000000000000000000000000000000000000000000000000000000000000000000000000000000000000000000000000000000000000000000000000000000000000000000000000250000000000000000000000000000000000000000000000000000000000000000000000000000000000000000000000000000000000000000000000000000000000000000000000000000000000000000000000000000000000000000000000000000000000000000000000000000000000000000000000000000000000000000000000000000000000000000000000000000000000000000000000000000000000000000000000000000000000000000000000000000000000000000000000000000000000000000000000000000000000000000000000000000000000000000000000000000000000000000000000000000000000000000000000000000000000000000000000000000000000000000000000000000000000000000000000000000000000000000000000000000000000000000000000000000000000000000000000000000000000000000000000000000000000000000000000000000000000000000000000000000000000000000000000000000000000000000000000000000000000000000000000000000000000000000000000000000000000000000000000000000000000000000000000000000000000000000000000000000000000000000000000000000000000000000000000000000000000000000000000000000000000000000000000000000000000000000000000000000000000000000000000000000000000000000000000000000000000000000000000000000000000000000000000000000000000000000000000000000000000000000000000000000000000000000000000000000000000000000000000000000000000000000000000000000000000000000000000000000000000000000000000000000000000000000000000000000000000000000000000000000000000000000000000000000000000000000000000000000000000000000000000000000000000000000000000000000000000000000000000000000000000000000000000000000000000000000000000000000000000000000000000000000000000000000000000000000000000000000000000000000000000000000000000000000000000000000000000000000000000000000000000000000000000000000000000000000000000000000000000000000000000000000000000000000000000000000000000000000000000000000000000000000000000000000000000000000000000000000000000000000000000000000000000000000000000000000000000000000000000000000000000000000000000000000000000000000000000000000000000000000000000000000000000000000000000000000000000000000000000000000000000000000000000000000000000000000000000000000000000000000000000000000000000000000000000000000000000000000000000000000000000000000000000000000000000000000000000000000000000000000000000000000000000000000000000000000000000000000000000000000000000000000000000000000000000000000000000000000000000000000000000000000000000000000000000000000000000000000000000000000000000000000000000000000000000000000000000000000000000000000000000000000000000000000000000000000000000000000000000000000000000000000000000000000000000000000000000000000000000000000000000000000000000000000000000000000000000000000000000000000000000000000000000000000000000000000000000000000000000000000000000000000000000000000000000000000000000000000000000000000000000000000000000000000000000000000000000000000000000000000000000000000000000000000000000000000000000000000000000000000000000000000000000000000000000000000000000000000000000
#053380:130000000000000000000000000000000000000000000000000000000000000000000000000000000000000000000000000000000000000000000000000000000000000000000000000000000000000000000000000000000000000000000000000000000000000000000000000000000000000000000000000000000000000000000000000000000000000000000000000000000000000000000000000000000000000000000000000000000000000000000053000000000000000000000000000000000000000000000000000000000000000000000000000000000000000000000000000000000000000000000000005300000000000000000000000000000000000000000000000000000000000000000000000000000000000000000000000000000000000000000000000000000000000000000000000000000000000000000000000000000000000000000000000000000000000000000000000000000000000000000000000000000000000000000000000000000000000000000000000000000000000000000000000000000000000000000000000000000000000000000000000000000000000000000000000000000000000000000000000000000000000000000000000000000000000000000000000000000000000000000000230000000000000000000000000000000000000000000000000000000000000000000000000000000000000000000000000000000000000000000000000000000000000000000000000000000000000000000000000000000000000000000000000000000000000000000000000000000000000000000000000000000000000000000000000000000000000000000000000000000000000000000000000000000000000000000000000000000000000000000000000000000000000000000000000000000000000000000000000000000000000000000000000000000000000000000000000000000000000000000000000000000000000000000000000000000000000000000000000000000000000000000000000000000000000000000000000000000000000000000000000000000000000000000000000000000000000000000000000000000000000000000000000000000000000000000000000000000000000000000000000000000000000000000000000000000000000000000000000000000000000000000000000000000000000000000000000000000000000000000000000000000000000000000000000000000000000000000000000000000000000000000000000000000000000000000000000000000000000000000000000000000000000000000000000000000000000000000000000000000000000000000000000000000000000000000000000000000000000000000000000000000000000000000000000000000000000000000000000000000000000000000000000000000000000000000000000000000000000000000000000000000000000000000000000000000000000000000000000000000000000000000000000000000000000000000000000000000000000000000000000000000000000000000000000000000000000000000000000000000000000000000000000000000000000000000000000000000000000000000000000000000000000000000000000000000000000000000000000000000000000000000000000000000000000000000000000000000000000000000000000000000000000000000000000000000000000000000000000000000000000000000000000000000000000000000000000000000000000000000000000000000000000000000000000000000000000000000000000000000000000000000000000000000000000000000000000000000000000000000000000000000000000000000000000000000000000000000000000000000000000000000000000000000000000000000000000000000000000000000000000000000000000000000000000000000000000000000000000000000000000000000000000000000000000000000000000000000000000000000000000000000000000000000000000000000000000000000000000000000000000000000000000000000000000000000000000000000000000000000000000000000000000000000000000000000000000000000000000000000000000000000000000000000000000000000000000000000000000000000000000000000000000000000000000000000000000000000000000000000000000000000000000000000000000000000000000000000000000000000000000000000000000000000000000000000000000000000000000000000000000000000000000000000000000000000000000000000000000000000000000000000000000000000000000000000000000000000000000000000000000000000000000000000000000000000000000000000000000000000000000000000000000000000000000000000000000000000000000000000000000000000000000000000000000000000000000000000000000000000000000000000000000000000000000000000000000000000000000000000000000000000000000000000000000000000000000000000000000000000000
#053370:0000005656000000000000000000000000000000000000000000000000000000
#0533b0:0000001300230000
#053360:0053
#053360:000000000000000000000000000000000000000000000000000000000000000000000000000000000000000000000000000000000000000000000000000000000000000000000000000000000000000000000000000000000000000000000000000000000000000000000000000000000000000000000000000000000000000000000000000000000000000000000000000000000000000000000000000000000000000000000000000000000000000000000000000000000000000000000000000000000000000000000000000000000000000000000000000000000000000000000000000000000000000000000000000000000000000000000000000000000000000000000000000000000000000000000000000000000000000000000000000000000000000000000000000000000000000000000000000000000000000000000000000000000000000000000000000000000000000000000000000000000000000000000000000000000000000000000000000000000000000000000000000000000000000000000000000000000000000000000000000000000000000000000000000000000000000000000000000000000000000000000000000000000000000000000000000000000000000000000000000000000000000000000000000000000000000000000000000000000000000000000000000000000000000000000000000000000000000000000000000000000000000000000000000000000000000000000000000000000000000000000000000000000000000000000000000000000000000000000000000000000000000000000000000000000000000000000000000000000000000000000000000000000000000000000000000000000000000000000000000000000000000000000000000000000000000000000000000000000000000000000000000000000000000000000000000000000000000000000000000000000000000000000000000000000000000000000000000000000000000000000000000000000000000000000000000000000000000000000000000000000000000000000000000000000000000000000000000000000000000000000000000000000000000000000000000000000000000000000000000000000000000000000000000000000000000000000000000000000000000000000000000000000000000000000000000000000000000000000000000000000000000000000000000000000000000000000000000000000000000000000000000000000000000000000000000000000000000000000000000000000000000000000000000000000000000000000000000000000000000000000000000000000000000000000000000000000000000000000000000000000000000000000000000000000000000000000000000000000000000000000000000000000000000000000000000000000000000000000000000000000000000000000000000000000000000000000000000000000000000000000000000000000000000000000000000000000000000000000000000000000000000000000000000000000000000000000000000000000000000000000000000000000000000000000000000000000000000000000000000000000000000000000000000000000000000000000000000000000000000000000000000000000000000000000000000000000000000000000000000000000000000000000000000000000000000000000000000000000000000000000000000000000000000000000000000000000000000000000000000000000000000000000000000000000000000000000000000000000000000000000000000000000000000000000000000000000000000000000000000000000000000000000000000000000000000000000000000000000000000000000000000000000000000000000000000000000000000000000000000000000000000000000000142400000000000000000000000000000000000000000000000000000000000000000000000000000000000000000000000000000000000000000000000000000000000000000000000000000000000000000000000000000000000000000000000000000000000000000000000000000000000000000000000000000000000000000000000000000000000000000000000000000000000000000000000000000000000000000000000000000000000000000000000000000000000000000000000000000000000000000000000000000000000000000000000000000000000000000000000000000000000000000000000000000000000000000000000000000000000000000000000000000000000000000000000000000000000000000000000000000000000000000000000000000000000000000000000000000000000000000000000000000000000000000000000000000000000000000000000000000000000000000000000000000000000000000000000000000000000000000000000000000000000000000000000000000000000000000000000000000000000000000000000000000000000000000000000000000000000000000000000000000000000000000000000000000000000000000000000000000000000000000000
#053360:0000000000000014
#0543a0:54
#054360:0024000000000000
#053321:0000000000000014
#054361:54
#054321:0024000000000000
#0543a1:00143400
#054371:0000003400000000
#054361:0000000000260000
#054350:00152500
#054320:0000003500000000
#054320:0000000000140000
#054340:00000026
#0553b0:0013002300000000
#055370:00530000
#055321:0000001300230000
#055361:0053
#0573a1:13535353535353535353535353535353
#0573b1:0053000000530000005300000053000000530000005300000053000000530000
#057391:0000005300000053000000530000005300000053000000530000005300000053
#0583a1:23
#057350:0000001300000000
#057320:00000000000000230000000000000000
#057320:00000000000000000013000000000000
#057350:0000000000230000
#058360:13230000
#058320:0053000000000000
#0583b1:00132300
#058371:0000005300000000
#058350:0000000013230000
#058381:0000000000132300
#058350:00000013
#059320:23
#059371:13230000
#0593b1:0053000000000000
#060361:0013000000000000
#060321:00530000
#060351:0000002300000000
#060380:0000001300000000
#0603b0:0053
#060370:0000000000230000
#060350:00000013
#061320:23
#062370:13230000
#0623b0:0053000000000000
#062321:00132300
#062361:0000005300000000
#062380:0000000013230000
#062351:0000000000132300
#062380:00000013
#0633b0:23
#063361:13230000
#063321:0053000000000000
#064371:0013000000000000
#0643b1:00530000
#064381:0000002300000000
#064350:0000001300000000
#064320:0053
#064360:0000000000230000
