This file was generated by Ched 2.6.4.0.
#TITLE ""
#ARTIST ""
#DESIGNER ""
#DIFFICULTY 0
#PLAYLEVEL
#SONGID ""
#WAVE ""
#WAVEOFFSET 0
#JACKET ""
#REQUEST "ticks_per_beat 480"
#00002: 4
#BPM01: 160
#00008: 01
#TIL00: ""
#HISPEED 00
#MEASUREHS 00
#00118:14141400
#00914:00140000
#0091a:2414
#01014:1414
#0101a:00140000
#01112:00140000
#01118:1414
#01212:1414
#01218:00140000
#02512:00160016
#02518:2626
#0251f:21
#02712:16
#02718:0000160000140000
#02714:00001414
#02818:16001414
#02812:00160000
#02814:0000000000140000
#02618:16
#02617:00360000
#02610:41
#02918:00160016
#02912:2626
#03118:16001414
#03112:00160000
#03114:0000000000140000
#03212:16
#03218:0000160000140000
#03214:00001414
#03012:16
#03013:00360000
#01314:00140000
#01318:0014
#0131a:14
#01412:14
#01418:00140000
#01414:0014
#01514:00140000
#0151a:0014
#01518:14
#01510:41
#01614:14
#01618:00140000
#01612:0014
#0171a:14
#0171f:11
#01812:14
#0191a:14
#02012:14
#0211a:14
#02118:0000341434000000
#02212:14
#02214:0000341434000000
#0231a:14
#02312:00140000
#04014:1414
#04018:00140014
#04112:00160016
#04118:2626
#04312:16001414
#04318:0000160000140000
#04418:16001414
#04412:0000160000140000
#04218:16
#04216:00160000
#04518:00160016
#04512:2626
#04718:16
#04712:00160000
#0471a:00001414
#04714:0000000000140000
#04710:41
#04812:16
#04818:00160000
#04814:00001414
#0481a:0000000000140000
#04612:16
#04614:00160000
#04912:00160016
#04918:2626
#05112:1614
#05118:0000160000140000
#05114:00000014
#05218:16000014
#05212:00160000
#0521a:0014
#05214:0000000000140000
#05018:16
#05016:00160000
#05318:00160016
#05312:2626
#05518:1614
#05512:00160000
#05514:0000000000140000
#0551a:00000014
#05612:16000014
#05618:0000160000140000
#05614:0014
#05610:41
#05412:16
#05414:00160000
#03618:1414
#03614:00140014
#06414:14
#0641a:00140000
#00514:14141400
#00510:41
#03412:14
#03418:00140000
#03414:0014
#0341a:00000014
#0381a:14
#03814:00140000
#03818:0014
#03812:00000014
#05814:14
#0581a:00140000
#05812:0014
#05818:00000014
#06218:14
#06212:00140000
#0621a:0014
#06214:00000014
#0601a:1414
#06012:00140014
#03710:41
#02658:66
#03052:56
#0215a:64
#02158:0000002400000000
#02252:54
#02254:0000002400000000
#04258:66
#04256:00260000
#04652:56
#04654:00260000
#05058:66
#05056:00260000
#05452:56
#05454:00260000
#02455:0016
#05352:1616
#04958:1616
#002380:1424
#003320:1424
#0043a0:1424
#006340:1424
#0073a0:1424
#008320:1424
#0173a0:00142400
#018320:00142400
#0193a0:00140000
#019380:0024
#020320:00140000
#020340:0024
#0213a0:14000024
#021380:0000345434000000
#022320:14000024
#022340:0000345434000000
#023350:0016
#024350:36362600
#026380:16
#026370:00360000
#026360:0000000036362600
#030320:16
#030330:00360000
#030340:0000000036362600
#033380:16000026
#035340:14
#035320:00000024
#037380:14
#0373a0:00240000
#037340:0014
#037320:00000024
#039380:14
#0393a0:00000024
#042380:1600000036362600
#042360:00360000
#046320:1600000036362600
#046340:00360000
#050380:1636
#050360:00360026
#050370:0000000000360000
#054320:1636
#054340:00360026
#054330:0000000000360000
#057380:16000026
#059320:14
#059340:00000024
#0613a0:14
#061380:00240000
#061320:0014
#061340:00000024
#0633a0:14
#063380:00000024
#064320:0000000014000024
