This file was generated by Ched 2.6.4.0.
#TITLE ""
#ARTIST ""
#DESIGNER ""
#DIFFICULTY 0
#PLAYLEVEL
#SONGID ""
#WAVE ""
#WAVEOFFSET 0
#JACKET ""
#REQUEST "ticks_per_beat 480"
#00002: 4
#BPM01: 170
#00008: 01
#TIL00: ""
#HISPEED 00
#MEASUREHS 00
#0011a:14
#0021a:14
#00312:14
#00412:14
#00518:14
#00618:14
#00714:14
#00814:14
#0171a:14
#03518:2616
#03510:41
#03612:1616
#03718:16
#03712:0016
#03912:1616
#04018:1616
#04112:16
#04118:0016
#04318:1616
#04512:1616
#04718:16
#04712:0016
#04710:41
#04912:16
#04918:0016
#05118:14
#0511f:11
#0531a:14
#05212:14
#05414:14
#05414:14
#05518:14
#05612:14
#0571a:14
#05814:14
#05912:0016
#05918:26
#0591f:21
#06018:16
#06012:0016
#06010:41
#06118:16
#06112:0016
#06318:0016
#06312:16
#06412:16
#06418:0016
#06512:16
#06518:0016
#06718:1616
#06912:1616
#07118:16
#07112:0016
#07110:41
#07312:16
#07318:0016
#07619:14
#07613:14
#07718:14
#07814:14
#07918:14
#01814:14
#0191a:14
#02014:14
#02118:14
#02110:41
#02212:14
#02318:14
#02412:14
#0251a:14
#02614:14
#02718:14
#02812:14
#02918:14
#03012:14
#0311a:14
#03214:14
#00910:41
#0093a0:14
#0103a0:24
#011320:14
#012320:24
#013380:14
#014380:24
#015340:14
#016340:24
#033380:14
#034380:24
#038380:1626
#042320:1626
#044380:1626
#046320:1626
#048380:1626
#050320:1626
#062380:1626
#066320:1626
#068380:1626
#070320:1626
#072380:1626
#074320:1636
#075320:26
#080340:14
#081340:24
