This file was generated by Ched 2.6.4.0.
#TITLE ""
#ARTIST ""
#DESIGNER ""
#DIFFICULTY 0
#PLAYLEVEL
#SONGID ""
#WAVE ""
#WAVEOFFSET 0
#JACKET ""
#REQUEST "ticks_per_beat 480"
#00002: 4
#BPM01: 170
#00008: 01
#TIL00: ""
#HISPEED 00
#MEASUREHS 00
#00912:14120000
#0091c:0000001200000000
#00914:0012
#0091a:1400000000120000
#00916:00000000000000000000000012000012
#00918:00000000000000000000000000120000
#00910:41
#0101c:00120000
#01012:0000001200000000
#0101a:0012
#01014:0000000000120000
#01018:16000000000000000000000012000012
#01016:00000000000000000000000000120000
#08014:0000000000000012
#08019:00121212
#08015:0000001200120000
#08018:13
#01215:0000000000000012
#01218:16
#01112:16120000
#0111c:0000001200000000
#01114:0012
#0111a:0000000000120000
#01116:00000000000000000000000012000012
#01118:00000000000000000000000000120000
#01318:00000000120000000000000000000012
#01312:14000000000012000000000000120000
#0131c:0012
#01316:0000000000120000
#0131a:14000012
#01416:00000000120000000000000000000012
#0141c:00000000000012000000000000120000
#01412:1612
#01418:0000000000120000
#01414:00000012
#01518:16000000120000000000000000000012
#01512:00000000000012000000000000120000
#0151c:0012
#01516:0000000000120000
#0151a:00000012
#01619:0012
#01615:0000000000130013
#01618:00000013
#01612:16
#01712:1313
#0171b:00130000
#01715:00000000130000000000001300000000
#01718:2300000013000013
#04318:0013000000130000
#04315:0000131300001313
#0431b:0000001300000013
#04312:2313
#04412:1300001313000013
#04415:00130013
#04418:0000001300000013
#04515:0013000000130000
#04518:0000131300001313
#04512:0000001300000013
#0451b:2313
#0461b:1300001313000013
#04618:00130013
#04615:0000001300000013
#04912:00000000130000000000001300000000
#0491b:13000000000000001300001300000000
#04916:24242400
#05019:1313000000000000
#05014:1313000000000000
#05013:0000131300000000
#0501a:0000131300000000
#05018:0000000000000013
#05015:00000000000000000000000000000013
#07617:00000012
#07619:24242400
#07613:24242400
#03518:1200000000000012
#0351a:00000000120000000000001200000000
#0351c:0012
#03512:12
#03516:00000000000000000000001200000000
#03514:0000000000000012
#03510:41
#03612:1212000000000012
#0361a:00000000120012000000001200000000
#03616:0012
#0361c:0012
#03618:00000000000000000000000000120000
#03614:00000000000000000000001200000000
#03818:0012
#0381a:00000012
#03816:12000012
#03714:0012000012000012
#03716:00120000
#0371c:00120000
#03712:00000012
#03718:0000001200001200
#0371a:0000000000120000
#03916:1200000000000012
#03914:00000000120000000000001200000000
#03912:0012
#0391c:12
#03918:00000000000000000000001200000000
#0391a:0000000000000012
#0401c:1212000000000012
#04014:00000000120012000000001200000000
#04018:0012
#04012:0012
#04016:0000000000000012
#0401a:00000000000000000000001200000000
#0411a:0012000012000012
#04118:00120000
#04112:00120000
#0411c:00000012
#04116:0000001200001200
#04114:0000000000120000
#04216:0000001200000000
#04218:0000000000000012
#0471b:0000131300000000
#04714:0000001300000000
#04712:13001313
#04715:0000000000000013
#04718:23
#04710:41
#04816:1414
#04818:0013000000000013
#04812:0000130000000013
#0481b:0000001300001300
#04815:0000001300130000
#0511b:23000013000000000013000000000000
#05117:0000001300000000
#05116:00000013000000001300000000000000
#05112:0000001300000000
#0511f:11
#05115:00000033
#05114:00000000000000000000000000330000
#05113:00000000000000000000000000003333
#05217:13
#05212:00130000000013000000000000000000
#0521b:00000013000000001300000000000000
#05216:00130000
#05218:0000001300001300
#05215:0000000000130013
#0531b:0000130000000013
#05316:00000000001300000000000000130000
#05317:00000000000000130000001300000000
#05312:1300000013130000
#05417:0000000000130013
#0541b:00001313
#05416:0013001300000000
#05412:13130000
#05512:13
#05516:24141414
#05514:0013000000000000
#0551b:00130013
#05519:0000001300000013
#05612:1300000000000013
#05616:1400003313130000
#0561b:00000000000000130000001300000000
#05617:0000000000000013
#05615:00000000333300000000000000000000
#05614:00003333000000000000000000000000
#05613:00330000000000000000000000000000
#05712:1300000000000013
#05718:0013000000001313
#05715:0000131300130000
#0571b:0000001313000000
#0581b:0013000013000000
#05815:0000130000000013
#05818:0000001300001300
#05812:0000000013130000
#05917:0000000000000013
#05912:23230000
#0591b:23
#0591f:21
#06012:2313231323000000
#06017:1300000000000013
#0601b:00130000
#06010:41
#06216:0018
#06212:00001418
#0621a:00000014
#06118:00161316
#06115:0013001300130013
#06112:0013
#06316:0000000000000013
#0631b:23230000
#06312:23
#06416:1300000000000013
#06412:00130000
#0641b:2313231323000000
#06616:00000000000000001400001400001400
#0661a:0000000014000014
#06612:00000000000000000000001400000000
#06512:00160016
#06518:0013001300130013
#0651b:0013
#06515:0013
#06715:0013002300130013
#06718:00130013
#0671b:1300002313000013
#06712:00130013
#0681b:1300001313000013
#06818:00130013
#06815:0000001300000013
#06918:0013001300130013
#06915:00130013
#06912:1300001313000013
#0691b:00130013
#07012:1300001313000013
#07015:00130013
#07018:0000001300000013
#07117:1212120000000000
#0711a:0000000000000014
#07112:0000002500130014
#07115:00000013
#0711b:0000000000130000
#07119:0000002500000000
#07110:41
#07218:13130000
#07212:0000001300000013
#0721b:0000001300000013
#07215:00001313
#07315:00000000000000000000001300000000
#07318:00000000000000000000001300000000
#0731b:1313
#07312:00130000
#07314:2626
#07316:00260000
#07412:1313000000130000
#0741b:1313000000130000
#0741a:0000131300000000
#07413:0000131300000000
#07418:0023
#07415:0023
#0771a:0000000000120000
#07716:00000000000012000000000012000012
#07718:00000000000000000000000000120000
#07714:18
#08118:12
#01818:00000000000000002300001300000000
#0181b:2323232300000013
#01815:00000000000000000000000000130000
#01812:2323232300000000
#01915:0013000000001300
#01918:0000130000130000
#01912:0000001313000000
#0191b:0000000013000013
#02112:0013000000000000
#02118:0000130000130013
#02115:0000001300000000
#0211b:00001313
#02110:41
#0221b:13
#02212:0013000000000000
#02218:00130013
#02215:00000000001300000000000000001300
#0221a:0013
#02213:0013
#02316:00001313
#02312:0000000000130013
#02317:13130000
#0231b:0013001300000000
#02418:0000000000130013
#02415:00000013
#02416:00130000000000000000000000000000
#02514:00000000000000000000001300000000
#02512:0000130000000013
#0251b:1313
#02515:13
#02518:00130000
#02516:0013
#02519:00000000000000000000001300000000
#02517:0000000000000013
#0261b:13001300000013000000000000130000
#02615:0000131300000013
#02617:0013
#02612:00001300000000000000001300000000
#02718:0013000000001300
#02715:0000130000130000
#0271b:0000001300000000
#02712:0000000000000013
#02012:00000013
#0281b:00000013
#0321b:1313
#03214:0013000000000000
#03218:00130000
#03215:00000000001300000000000013000000
#03212:1313
#03219:00001300000000000000000000000013
#03414:00000013
#03419:00000013
#0011b:13
#00116:1313
#00117:0000130000000013
#00112:00130000
#0021b:13131300
#00216:0013001300000000
#00215:0000000000000013
#00212:00000000000000000000001300000000
#00218:00000000000000000000000000130000
#0031b:0013130000000000
#00315:0000130000000013
#00318:0000001300001300
#00412:1313000018000000
#00418:13
#0041b:0000131300000000
#00415:00130000
#00416:00000018
#00512:13
#00517:1313
#00516:0000130000000013
#0051b:00130000
#00612:13131300
#00617:0013001313000000
#00616:0000000000000013
#00614:00000000000000000000001300000000
#00619:00000000000000000000001300000000
#0061b:0000000000000013
#0071b:0013000013001300
#00718:0000130000000013
#00715:0000001300001300
#00712:1300130000130000
#0081b:00130000
#00815:0000001300000000
#00812:13
#00818:0013
#00814:00000013
#00819:00000013
#0291b:0013000000000000
#02915:0000130000130013
#02918:0000001300000000
#02912:00001313
#03012:13
#0301b:0013000000000000
#03015:00130013
#03018:00000000001300000000000000001300
#03013:0013
#0301a:0013
#03112:1313
#0311b:1313
#03115:0013130000000013
#03118:0000001300131300
#03316:13
#03314:0000000000140014
#03318:00000014
#07814:0000000000120000
#07818:16000000000012000000000012000012
#07816:00000000000000000000000000120000
#0791a:0000000000120000
#07916:00000000000012000000000012000012
#07918:00000000000000000000000000120000
#07914:14
#07512:24
#0751a:24
#01752:1313
#0175b:00130000
#04956:34443400
#04952:00000000000000000000005300000000
#0495b:00000000000000000000005300000000
#03558:42
#0355a:00420000
#0355c:0042
#03552:52
#0385a:00000042
#03854:0032
#03956:32
#03954:00320000
#03952:0032
#0395c:62
#04752:5313
#04758:13
#05652:53
#05957:00430000
#0595b:53
#05952:33630000
#05956:0033
#06256:0048
#06252:00000038
#06656:00000000000000003400004400003400
#0635b:43530000
#06352:63
#06356:00330000
#06357:0043
#07355:00000000000000000000006300000000
#07358:00000000000000000000006300000000
#07354:3636
#07356:00460000
#0745b:0000000000230000
#07452:0000000000230000
#07458:0053
#07455:0063
#00452:0038
#00456:00000048
#00852:53
#02352:0000000000000053
#02456:00230000000000000000000000000000
#0255b:13
#02552:00130000
#02657:0053
#02655:0000000000000013
#0275b:0000005300000000
#03356:53
#04352:1313
#0455b:1313
#0675b:1313
#06952:1313
#0185b:0000000000000013
#02052:00000013
#02253:0013
#0225a:0013
#0285b:00000013
#03252:0013
#0325b:0013
#03458:0016
#03452:0016
#03053:0013
#0305a:0013
#05052:00000013
#0013b0:00000000000000001300002300000000
#001321:00000000000000000000001300002300
#003321:00001323
#005321:00000000000000001300002300000000
#0053b0:00000000000000000000001300002300
#008320:13
#008360:00230000
#012390:0000122200000000
#012351:0000001222000000
#012390:0000000012220000
#012351:0000000000122200
#012390:0000000000001222
#016390:0000122200000000
#016351:0000001222000000
#018351:00000000000000001300002300000000
#020321:1323000000000000
#0203b0:0013230000000000
#020351:0000132300000000
#020380:0000001323000000
#020321:0013
#020361:0000000000230000
#0203b0:0000000000130000
#020370:00000023
#021320:0013
#022320:23
#023320:13330000
#023360:0033002300000000
#0233b0:00001333
#023370:0000000000330023
#023321:0000000000000013
#024361:00530000000000000000000000000000
#024321:00230000
#026371:0013
#0263b1:00000000000000000000002300000000
#0273b1:0000001300000000
#027381:0000000000230000
#0283b1:1323000000000000
#028320:0013230000000000
#028381:0000132300000000
#028350:0000001323000000
#0283b1:0013
#028371:0000000000230000
#028320:0000000000130000
#028360:00000023
#0293b0:0013
#0303b0:23
#033360:13
#033320:0000002300000000
#034380:1626
#034321:00162600
#035321:12
#035361:0022
#0383c1:1222000000000000
#038360:0012220000000000
#0383a1:0000122200000000
#038340:0000001222000000
#0393c0:12
#039380:0022
#042330:12
#042360:00000022000000000000000000000000
#042381:00000012000000000000000000000000
#0423b1:0000002200000000
#0423b1:0012
#042381:00000000000000000000002200000000
#042360:00000000000000000000001200000000
#042330:0000000000000022
#0443b0:0013230000000000
#0443b0:0000000000132300
#046320:0013230000000000
#046320:0000000000132300
#047320:13
#047360:00230000
#047380:00001333
#0473b0:0000000000330023
#049320:00000000000000000000001300000000
#049350:0000000000000023
#0493b1:00000000000000000000001300000000
#049381:0000000000000023
#050321:00001323
#0503b0:00001323
#051360:00000000000000000000001300000000
#051350:00000033
#051340:00000000000000000000000000330000
#051330:00000000000000000000000000003333
#052320:23
#053380:13
#053390:003300000000000000000000000000000000000000000000
#0533a0:003300000000000000000000
#0533b0:0023000000000000
#054380:13330000
#0543b0:0033002300000000
#054350:00001333
#054320:0000000000330023
#055320:0013
#055330:00000000000000000033000000000000
#055340:0000000000230000
#056320:13
#056330:00330000000000000000000000000000
#056340:00003333000000000000000000000000
#056350:00000000333300000000000000000000
#056360:00000000000033230000000000000000
#0593b0:13
#059370:00230000
#059321:00130000
#059361:0023
#0593b0:00000000000000001300002300000000
#059321:00000000000000000000001300002300
#060371:0013
#0603b1:00000000000000000000002300000000
#060360:00000000000000000000001300000000
#060320:0000000000000023
#062370:13
#0623b0:0023000000000000
#062321:13
#062361:0023000000000000
#0623b1:00130000
#062371:0000002300000000
#062360:00130000
#062320:0000002300000000
#063320:13
#063360:00230000
#0633b1:00130000
#063371:0023
#063320:00000000000000001300002300000000
#0633b1:00000000000000000000001300002300
#064361:0013
#064321:00000000000000000000002300000000
#064370:00000000000000000000001300000000
#0643b0:0000000000000023
#066360:13
#066320:0023000000000000
#0663b1:13
#066371:0023000000000000
#066321:00130000
#066361:0000002300000000
#066370:00130000
#0663b0:0000002300000000
#068350:0013000000000000
#068320:00230000
#068350:0000000000130000
#068320:00000023
#070380:0013000000000000
#0703b0:00230000
#070380:0000000000130000
#0703b0:00000023
#072320:0013000000000000
#072350:00230000
#0723b0:0000000000130000
#072380:00000023
#073350:00000000000000000000001300000000
#073320:0000000000000023
#073381:00000000000000000000001300000000
#0733b1:0000000000000023
#074351:00001323
#074321:0000000000530000
#074380:00001323
#0743b0:0000000000530000
#075320:14000024
#0753a1:14000024
#0773c1:0000122200000000
#077341:0000000012220000
#078321:0000122200000000
#0783a1:0000000012220000
#0793c1:0000122200000000
#079341:0000000012220000
