This file was generated by Ched 2.6.4.0.
#TITLE ""
#ARTIST ""
#DESIGNER ""
#DIFFICULTY 0
#PLAYLEVEL
#SONGID ""
#WAVE ""
#WAVEOFFSET 0
#JACKET ""
#REQUEST "ticks_per_beat 480"
#00002: 4
#BPM01: 170
#00008: 01
#TIL00: ""
#HISPEED 00
#MEASUREHS 00
#0171a:13
#01715:00130013
#01718:0013
#05018:13
#05015:0013000000000000
#0501b:00130000
#05012:0000001300000000
#07612:00000013
#0761b:00000013
#07616:24242400
#03518:13
#03515:00130000
#0351a:0014
#03516:00000000000000000000001400000000
#03512:1300000000000014
#0351b:00130000
#03510:41
#0471b:1300000000000013
#04712:0013
#04718:0000000000130000
#04715:00000013
#04710:41
#05818:0013001300000013
#05815:00130013
#05812:0013
#0581b:0000000000130000
#06018:0013001300000000
#06012:23230000
#06010:41
#06218:0016
#06212:00000016
#06118:00131600
#06112:0013000000001600
#06115:0000001300000000
#06715:0013000000130000
#0671b:1313
#06712:0000002300000013
#06718:00130013
#07115:0013000000000013
#07118:13130013
#07112:0000002400130000
#0711a:0000002400000000
#07110:41
#01815:0000000000000013
#01818:23230000
#01812:0023002300000000
#0191b:0013000000000000
#01915:00131300
#01912:00000013
#01918:0000001300000000
#02112:0013000000001300
#02118:00131300
#02115:0000001300000000
#02110:41
#02216:13
#0221b:13000013
#02217:0013
#02212:0013
#02214:00130000
#02219:00130000
#02317:0000000000000013
#02314:0033000000000000
#02316:00330000
#0231a:0000000000330000
#02318:00000033
#02415:0000000000130013
#02418:00000013
#03219:13
#03214:0013000000000000
#03212:00000013
#03218:00000000000000000000000000000013
#03416:00000014
#03412:15151500
#03419:15151500
#00115:13
#00118:00130000
#00112:0000000014000014
#00116:00000000000000000000001400000000
#0021b:13
#00215:0013000000000000
#00218:00130000
#00212:0000001300000000
#0021a:0000000014000014
#00216:00000000000000000000001400000000
#00315:0013001300000013
#00318:00130000
#0041b:13
#00412:00130000
#00418:0013
#00415:00000013
#00718:00130000
#0071b:13
#00715:0013
#00712:00000013
#00812:13
#00816:00000014
#0081b:13
#0251b:13
#02512:00130000
#02516:0014
#02518:00000000000000000000001400000000
#0251a:0000000000000014
#0311b:13131313
#03116:0013000000130000
#03112:0000001300000013
#03315:00000013
#03318:0000000000130000
#00518:13
#00515:00130000
#0051a:0000000014000014
#00516:00000000000000000000001400000000
#00612:1300000014000014
#00618:0013000000000000
#00615:00130000
#0061b:0000001300000000
#00616:00000000000000000000001400000000
#01219:00131313
#01214:1400001300130013
#0361a:0014
#03616:00000000000000000000001400000000
#03612:0000000000000014
#0361b:1313000000000000
#03615:0000131300000000
#03712:0013001300000000
#03718:00131300
#0371b:00000013
#03815:13130000
#03818:0013001300000000
#03812:0013
#0381b:00000013
#03912:00131400
#03916:00000000000000000000001400000000
#0391a:0000000000000014
#03918:00130000
#03915:13
#0391b:13
#0411b:0013001300000000
#04115:00131300
#04112:00000013
#04315:0013001300000000
#0431b:23130000
#04318:00001313
#04312:0000000000130013
#0441b:13000013
#04412:00131300
#04418:00130000
#04415:00000013
#04518:0013001300000000
#04512:23130000
#04515:00001313
#0451b:0000000000130013
#04612:13000013
#0461b:00131300
#04615:00130000
#04618:00000013
#04812:13130000
#04818:00130000
#0481b:00001313
#04815:00000013
#05712:1300000000000013
#05718:0013000000001300
#05715:0000130000130000
#0571b:0000001313000000
#05916:00000000240000000000001400000000
#0591a:2400000024000014
#05912:2424
#0591f:21
#06415:0013001300000000
#0641b:23230000
#06612:0000000016000016
#06618:00000000000000000000001600000000
#06316:00000000240000000000001400000000
#06312:2400000024000014
#0631a:2424
#06912:0013000000130000
#06918:1313
#06915:0000001300000013
#0691b:00130013
#07415:13
#07418:0013000000000000
#07412:00130000
#0741b:0000001300000000
#07416:0024
#07414:00000028
#0731a:24000014
#07312:00240014
#07316:0024
#02615:13130000
#0261b:0013001300000000
#02618:0000000000000013
#02712:0013000000000000
#02718:00131300
#0271b:00000013
#02715:0000001300000000
#0291b:0013000000001300
#02915:00131300
#02918:0000001300000000
#03017:13
#03012:13000013
#03016:0013
#0301b:0013
#03019:00130000
#03014:00130000
#06515:00130000
#06518:0000001300001600
#0651b:0013000000000000
#06512:0016
#01315:00131300
#0131b:0000001300000000
#01318:16
#00918:16
#00910:41
#01014:14
#01118:14
#01412:1400001300000000
#01418:00131300
#0151a:14
#01515:00131300
#0151b:0000001300000000
#01612:14
#01619:00131300
#01614:0000001300000000
#01613:00000033
#07715:1600000000130013
#0771b:00000013
#07818:1400000000130013
#07812:00000013
#07914:14
#07915:0000000000130013
#0791b:00000013
#08018:14
#04012:1313000014000000
#04016:00000000000000000000001400000000
#0401a:0000000000000014
#04018:0000131300000000
#05115:00000013000000000000000000000000
#05118:2300001300000000
#0511f:11
#05114:00000000000000000033000033000000
#05113:00000000000000000000000000333333
#0521b:0013
#05215:0000000000130000
#05218:00000013
#05212:0000000000000013
#0561b:13
#05617:00130000
#05619:0033003300000000
#05618:00000033003300000000000000000000
#0561a:00330000000000330000000000000000
#0541b:13
#05415:0013000000000000
#05412:0013
#05418:0000000000130000
#0551b:2313000000000000
#05515:0000131300000000
#05518:0000000013130000
#05512:0000000000001313
#0491a:2424
#04912:00240000
#07512:2c
#0175a:13
#01758:0013
#01755:00130000
#0475b:53
#00852:53
#0085b:63
#02357:0000000000000053
#0255b:13
#02552:00130000
#00458:0013
#00455:00000013
#03852:0033
#0385b:00000043
#0495a:1414
#04952:00140000
#06258:0016
#06252:00000016
#06652:0000000016000016
#06658:00000000000000000000001600000000
#0735a:14
#07352:00140000
#07356:0014
#01855:0000000000000013
#0565b:53
#05657:00530000
#03056:0013
#0305b:0013
#02257:0013
#02252:0013
#003380:00001323
#008320:13
#008350:00332300
#0083b1:13
#008381:00332300
#009381:0000133333332300
#010351:0000133333332300
#011381:0000133333332300
#0133b1:0000000000133323
#014321:0000000000133323
#0153b1:0000000000133323
#016351:0000000000130000
#016331:00000033
#016321:0000000000000023
#018381:00001323
#0203a1:14343424
#020371:0034003400340000
#023321:13
#023341:0033000000000000
#023361:0000332300000000
#0233b1:0013
#0233a1:0000000000330000
#023381:00000033
#023371:0000000000000033
#0243b1:00230000
#026351:00001323
#028321:14343424
#028351:0034003400340000
#032381:00132300
#032350:00000000001300002300000000000000
#033350:1300002300000000
#0423b0:13
#042390:00000033000000000000000000000000
#042370:0000002300000000
#042320:0013
#042340:00000000000000000000003300000000
#042360:0000000000000023
#0473b0:13
#047380:00230000
#049350:00000000000000000000001300000000
#049320:0000000000000023
#050360:00001424
#051320:0013
#051340:00000000000000000033000033000000
#051360:00000000000000000000003300000000
#051330:00000000000000000000000000333333
#052320:33330000000000000000000000000000
#052350:00000033000023000000000000000000
#053380:13
#053390:003300000000000000000000000000000000000000000000
#0533a0:003300000000000000000000
#0533b0:0023000000000000
#053350:00000000133300000000333300000000
#053320:00000000000000333300000000332300
#054380:0000132300000000
#054350:0000000000001323
#0563b0:1300000033000023
#0563a0:00330000000000330000000000000000
#056390:0033003300000000
#056380:00000033003300000000333300000000
#056370:00330000
#060320:0000000013000023
#060360:00000000000000000000003300000000
#0623b0:13
#062380:00230000
#062351:13
#062321:00230000
#0643b1:0000000013000023
#064371:00000000000000000000003300000000
#066321:13
#066351:00230000
#066380:13
#0663b0:00230000
#068370:14
#0683a0:0024000000000000
#068350:00140000
#068320:0000002400000000
#068370:0014
#0683a0:0000000000240000
#068350:00000014
#068320:0000000000000024
#0703a0:14
#070370:0024000000000000
#070320:00140000
#070350:0000002400000000
#0703a0:0014
#070370:0000000000240000
#070320:00000014
#070350:0000000000000024
#0723a0:14
#072370:0024000000000000
#072320:00140000
#072350:0000002400000000
#072370:0014
#0723a0:0000000000240000
#072350:00000014
#072320:0000000000000024
#075320:1c00002c
#0773b0:0000133323000000
#078320:0000133323000000
#0793b0:0000133323000000
#080350:0000133333333333
#081330:23
