This file was generated by Ched 2.6.4.0.
#TITLE ""
#ARTIST ""
#DESIGNER ""
#DIFFICULTY 0
#PLAYLEVEL
#SONGID ""
#WAVE ""
#WAVEOFFSET 0
#JACKET ""
#REQUEST "ticks_per_beat 480"
#00002: 4
#BPM01: 170
#00008: 01
#TIL00: ""
#HISPEED 00
#MEASUREHS 00
#00912:18120000
#00916:0000001212001200
#00918:00000000120000000000120000120000
#00914:00000000000000000000000000000012
#0091c:1212
#00910:41
#08016:0000001200000012
#0801a:14120012
#0801c:0012
#08018:0000000000120000
#08012:12120012
#08014:0012
#04315:0013000000130000
#0431b:0000001300000013
#04312:2313
#0431a:00000013000000000000001300000000
#04317:23131313
#05017:13131300
#05012:13131300
#05016:0013001300000000
#0501b:0013001300000000
#05018:0000000000000013
#05015:00000000000000000000000000000013
#03516:1212
#03512:0000120000000012
#0351c:12
#0351a:00000000000000000000001200000000
#03518:0000000000000012
#03514:00001200000012000000001200000000
#03517:00120000
#03510:41
#03618:00120000000012000000000000001200
#0361a:00000012000000000000000000000000
#03616:00000000120000000000001200120000
#03612:1212
#03614:0012000000000012
#0361c:00000000001200000000000000000000
#0381c:0012
#03818:00000012
#03812:00000012
#0371c:0012120000000000
#03718:0000000000121200
#0371a:0000001212000012
#04716:00130013
#04719:0000001300000000
#04714:0000001300000000
#04717:1313
#0471b:0000000000130000
#04712:2300000000000013
#04710:41
#0491a:1414
#04912:28142800
#04916:0014281400000000
#0511b:1300001300001300
#05112:23000013000000000000000000000013
#05115:0013
#05118:00000000000000000013000000000000
#05116:00000000000000000000001300000000
#05114:00000000000000000000000000130000
#05119:0000000000000013
#0511f:11
#05217:13130000000000000000000000000000
#05212:00000013130000000000000014000000
#0521b:0000001300000000
#05216:0000001314001414
#0521a:0000000014140000
#0531b:13000000131300000000000000130000
#05316:00000000130000000000000000131300
#05317:00000000000000001300131300000000
#05312:00000000000000131300001300000000
#05314:003300000000000000000000
#05313:003300000000000000000000000000000000000000000000
#0551b:1313131300001300
#05512:2300130013001313
#05516:0013001300000000
#05518:00000000000000000013000000000000
#05515:0000000000130000
#05517:0000000000000013
#05617:0013
#05616:0000000000130000
#0561b:13000000000000000000131300001300
#05615:00130000000000000000000000000000
#0561a:0013000000000000
#05614:00000013000000000000000000000000
#05619:00130000
#05613:00000000001300000000000000000000
#05618:0000001300000000
#05612:00000000000000131300000000001300
#05712:0000130013000013
#0571b:1300000013000013
#05717:0013000000000000
#05716:0000001300000000
#05718:00000000000000000000001300000000
#05715:0000000000130000
#06012:13001300130013001300000000131300
#0601b:00000000000000000000001300000000
#06017:0013001300000000
#06015:25252500
#06010:41
#06216:00140014000000001800000000000000
#06212:0014001414161800
#0621a:14000014
#06218:0000000000000016
#06718:0013000000130000
#0671b:00130013
#06717:1313
#06712:1313
#06719:0000002300000013
#06715:00000013000000000000001300000000
#06815:13000013000000000000130000000000
#06812:00130000000016000000000000000000
#06818:00001300000000001300001300001600
#0681b:00000000000000000013000000000000
#07115:1212120000000000
#07119:1212120000130000
#07116:00001414
#0711b:00000013
#07114:0000000000000013
#07112:0000002c13000000
#07110:41
#0771c:1200000000120000
#07712:1600001200000000
#07715:00000000000000000000000000120012
#07716:00120000
#07718:0012
#07719:00000012
#07812:1200000000120000
#0781c:0000001200000000
#07819:00000000000000000000000000120012
#07818:16120000
#07816:0012
#07815:00000012
#0811c:12
#08114:12
#0731a:1414
#07312:28142800
#07316:0014281400000000
#01818:2626262626000016
#01812:26002600260026000000000000160000
#02112:1313000000000000
#0211b:00131300
#02116:0000001300000000
#02117:0013000000000000
#02110:41
#02212:1313000000001300
#02218:00130000
#02215:00000000131300000000000000000000
#02217:0013000000001300
#02216:0000000000000013
#0221b:0000000000000013
#02317:00001313
#02312:0000000000130014
#02316:13130000
#0231b:0013001300000000
#0241b:0000000000130013
#02412:00000013
#02418:00140000140000000000000000000000
#02416:0000000000130013
#02417:00000013
#02512:13000000000000000000001300000000
#02516:0000000013000013
#02517:13
#0251b:00130000
#0261b:0013
#02612:00000000000000000000001300000000
#02616:13000000000000000000000000131300
#02617:0000000000000000000000000000000000000000001300000000000000000000
#02717:0013000000001313
#0271b:0000001300000013
#02712:0013000000130000
#02719:00130000
#02716:0000001300000000
#03212:0013000000001300
#03216:13
#03217:0013000000001300
#0321b:13000000000000000000000000000013
#03215:00130000
#03414:00000012
#0341a:00000012
#03418:1616
#03412:00161600
#07517:0000001400000000
#0751b:13
#07515:000000000000000000000000000000000000000000000000000000000000000000000000000000000000000000000000000000000000000000000000000000000000000000000000000000000000000000000000000000000000000000000000000000000000000000000000000000000000000000000000000000000000000000000000000000000000000000000000000000000000000000000000000000000000000000000000000000000000000000000000000000000000000000000000000000000000000000000000000000000000000000000000000000000000000000000000000000000000000000000000000000000000000000000000000000000000000000000000000000000000000000000000000000000000000000000000000000000000000000000000000000000000000000000000000000000000000000000000000000000000000000000000000000000000000000000000000000000000000000000000000000000000000000000000000000000000000000000000000000000000000000000000000000000000000000000000000000000000000000000000000000000000000000000000000000000000000000000000000000000000000000000000000000000000000000000000000000000000000000000000000000000000000000000000000000000000000000000000000000000000000000000000000000000000000000000000000000000000000000000000000000000000000000000000000000000000000000000000000000000000000000000000000000000000000000000000000000000000000000000000000000000000000000000000000000000000000000000000000000000000000000000000000000000000000000000000000000000000000000000000000000000000000000000000000000000000000000000000000000000000000000000000000000000000000000000000000000000000000000000000001400000000000000000000000000000000000000000000000000000000000000000000000000000000000000000000000000000000000000000000000000000000000000000000000000000000000000000000000000000000000000000000000000000000000000000000000000000000000000000000000000000000000000000000000000000000000000000000000000000000000000000000000000000000000000000000000000000000000000000000000000000000000000000000000000000000000000000000000000000000000000000000000000000000000000000000000000000000000000000000000000000000000000000000000000000000000000000000000000000000000000000000000000000000000000000000000000000000000000000000000000000000000000000000000000000000000000000000000000000000000000000000000000000000000000000000000000000000000000000000000000000000000000000000000000000000000000000000000000000000000000000000000000000000000000000000000000000000000000000000000000000000000000000000000000000000000000000000000000000000000000000000000000000000000000000000000000000000000000000000000000000000000000000000000000000000000000000000000000000000000000000000000000000000000000000000000000000000000000000000000000000000000000000000000000000000000000000000000000000000000000000000000000000000000000000000000000000000000000000000000000000000000000000000000000000000000000000000000000000000000000000000000000000000000000000000000000000000000000000000000000000000000000000000000000000000000000000000000000000000000000000000000000000000000000000000000000000000000000000000000000000000000000000000000000000000000000000000000000000000000000000000000000000000000000000000000000000000000000000000000000000000000000000000000000000000000000000000000000000000000000000000000000000000000000000000000000000000000000000000000000000000000000000000000000000000000000000000000000000000000000000000000000000000000000000000000000000000000000000000000000000000000000000000000000000000000000000000000000000000000000000000000000000000000000000000000000000000000000000000000000000000000000000000000000000000000000000000000000000000000000000000000000000000000000000000000000000000000000000000000000000000000000000000000000000000000000000000000000000000000000000000000000000000000000000000000000000000000000000000000000000000000000000000000000000000000000000000000000000000000000000000000000000000000000000000000000000000000000000000000000000000000000000000000000000000000000000000000000000000000000000000000000000000000000000000000000000000000000000000
#07512:13
#0011b:1313
#00116:13
#00112:0000130000000013
#00119:00000000000000000000001300000000
#00117:0000000000000013
#00114:00000000000000000000001300000000
#00212:1616161613000013
#00216:00000000000000000000001300130000
#00218:00130000001300000000000000000000
#0021b:00000013000000000000000000000000
#00217:0013
#0021a:0000000000000013
#00416:0013
#0041b:1313
#00412:001c131c00001300
#00417:00000013
#00817:13
#00818:0000001300000000
#00812:13
#00815:0013
#00814:00000013
#00819:00000013
#03017:00000013
#03019:0000000000000013
#0301b:1313000000000000
#03015:00130000
#03018:00000000131300000000000000000000
#03016:0013000000000000
#03012:00000013
#03116:1313000013130000
#03112:0000131300001313
#03316:1300000000130000
#03312:00000013000000000000000000001300
#0331b:1300001300001300
#00314:0013000000130000
#00312:00130013
#00317:00130013
#00319:0000001300000013
#0031b:0013
#00316:0013
#00512:1313
#00517:13
#0051b:0000130000000013
#00514:00000000000000000000001300000000
#00516:0000000000000013
#00519:00000000000000000000001300000000
#00618:1616161600000000
#00615:00130000001300000000000000000000
#00612:00000013000000000000000000000000
#00616:0000000013000013
#00617:00000000000000000000001300000000
#0061b:0013
#00719:0013000000130000
#0071b:00130013
#00716:00130013
#00714:0000001300000013
#00712:1313
#00717:1313
#0101c:00120000
#01018:0000001212001200
#01016:18000000120000000000120000120000
#0101a:00000000000000000000000000000012
#01012:1212
#01112:18120000
#01116:0000001212001200
#01118:00000000120000000000120000120000
#01114:00000000000000000000000000000012
#0111c:1212
#01216:18121212
#0121c:00121212
#01218:0000001200120012
#01212:1200001200120012
#01714:0000131300000000
#01716:00000000000000001300001300000000
#01719:00130000
#0171b:0013
#01712:2313000000000013
#01917:0013000000000000
#0191b:0000130000130000
#01916:0000001300000000
#01912:0000000000001313
#0201b:13131313
#02015:13000013000013000000001300000000
#02018:00001300000000130000130000000000
#02012:00131313
#05416:1300000000000013
#05412:0013000000001300
#05417:0000001313000000
#0541b:0000130000130000
#0591a:2400001414000014
#05916:24002400000024000000001400000000
#05918:00000014
#05912:0014240000000014
#0591f:21
#06117:0013000000130000
#0611b:0000131313001313
#06112:0013001300130000
#06115:00131313
#0291b:1313000000000000
#02912:00131300
#02917:0000001300000000
#02916:0013000000000000
#02812:13131313
#02818:13000013000013000000001300000000
#02815:00001300000000130000130000000000
#0281b:00131313
#03918:1212
#0391c:0000120000000012
#03912:12
#03914:00000000000000000000001200000000
#03916:0000000000000012
#0391a:00001200000012000000001200000000
#03917:00120000
#04016:00120000000012000000000000001200
#04014:00000012000000000000000000000000
#04018:00120000
#0401c:1212
#04012:00000000001200000000000000000000
#0401a:0012000000000000
#04112:0012120000000000
#04116:0000000000121200
#04114:0000001212000012
#04212:1212
#04215:00000012000000000000001200000000
#0421c:0000001200000012
#04219:00000012000000000000001200000000
#04415:0016130000160000
#0441b:1300001300000000
#04418:00000013
#04412:0000000013000013
#04518:0013000000130000
#04512:0000001300000013
#0451b:2313
#04513:00000013000000000000001300000000
#04516:23131313
#0481a:1414000000001414
#04812:0000181414000000
#04816:0000000000180000
#06516:0013000000130000
#06512:0000131313001313
#0651b:0013001300130000
#06518:00131313
#06312:2400001414000014
#06316:24002400000024000000001400000000
#06314:00000014
#0631a:0014240000000014
#06412:00000000000000000000001300000000
#0641b:1313131313000013
#06416:2513251325000000
#06616:1318
#06612:0000000000000014
#06617:0000001300000000
#06915:0013000000130000
#06912:00130013
#06916:1313
#0691b:1313
#06914:0000001300000013
#06918:00000013000000000000001300000000
#07018:13000013000016000000130000000000
#0701b:00130000000000000000000000000000
#07015:00001300000000001300001300000000
#07012:00000000000000000013000000001600
#07215:13000013000000000000130000000000
#07212:00130000000016000000000000000000
#07218:00001300000000001300001300001600
#0721b:00000000000000000013000000000000
#07416:13130000
#0741b:13132300
#07417:0013001300000000
#07412:0013001323000000
#07418:00000013
#07415:00000013
#07616:00000012
#07618:000000000000000000000000000000000000001200000000
#07612:2425
#0761a:00240000
#07619:0025
#0791c:1200000000120000
#07912:1400001200000000
#07915:00000000000000000000000000120012
#07916:00120000
#07918:0012
#07919:00000012
#04618:00130000
#04612:1300001300000000
#04615:0016000000161300
#0461b:0000000013000013
#01312:1c120000
#01317:00000000000000000000000000120012
#0131c:00000012
#01316:0000000000120000
#01314:0000001212000000
#01412:15000012
#0141c:00120000
#01417:00000000000000000000000000120012
#01418:0000000000120000
#0141a:0000001212000000
#01419:15
#01519:15
#01516:00120000
#01517:00000000000000000000000000120012
#0151c:00000012
#01512:1500000000120000
#01514:0000001212000000
#01612:15
#01618:00120000
#0161a:0000001212000000
#01619:15
#05812:00000000000000000000000000000013
#0581b:0000000000000013
#05813:00000000000000000000000000130000
#0581a:00000013
#05814:00000000000013000000001300000000
#05819:0000001300130000
#05815:00001300130000000013000000000000
#05818:00000013000000001300000000000000
#04952:3838
#04956:00480000
#03556:3232
#03552:00320000
#0355c:62
#03557:00220000
#04757:6343
#04756:00000033
#04752:13
#0595a:54440000
#05956:3424002400000000
#05952:00643400
#06256:0048
#06252:00003438
#0625a:00000044
#07352:3838
#07356:00480000
#07557:0000002400000000
#0755b:53
#07555:000000000000000000000000000000000000000000000000000000000000000000000000000000000000000000000000000000000000000000000000000000000000000000000000000000000000000000000000000000000000000000000000000000000000000000000000000000000000000000000000000000000000000000000000000000000000000000000000000000000000000000000000000000000000000000000000000000000000000000000000000000000000000000000000000000000000000000000000000000000000000000000000000000000000000000000000000000000000000000000000000000000000000000000000000000000000000000000000000000000000000000000000000000000000000000000000000000000000000000000000000000000000000000000000000000000000000000000000000000000000000000000000000000000000000000000000000000000000000000000000000000000000000000000000000000000000000000000000000000000000000000000000000000000000000000000000000000000000000000000000000000000000000000000000000000000000000000000000000000000000000000000000000000000000000000000000000000000000000000000000000000000000000000000000000000000000000000000000000000000000000000000000000000000000000000000000000000000000000000000000000000000000000000000000000000000000000000000000000000000000000000000000000000000000000000000000000000000000000000000000000000000000000000000000000000000000000000000000000000000000000000000000000000000000000000000000000000000000000000000000000000000000000000000000000000000000000000000000000000000000000000000000000000000000000000000000000000000000000000000000002400000000000000000000000000000000000000000000000000000000000000000000000000000000000000000000000000000000000000000000000000000000000000000000000000000000000000000000000000000000000000000000000000000000000000000000000000000000000000000000000000000000000000000000000000000000000000000000000000000000000000000000000000000000000000000000000000000000000000000000000000000000000000000000000000000000000000000000000000000000000000000000000000000000000000000000000000000000000000000000000000000000000000000000000000000000000000000000000000000000000000000000000000000000000000000000000000000000000000000000000000000000000000000000000000000000000000000000000000000000000000000000000000000000000000000000000000000000000000000000000000000000000000000000000000000000000000000000000000000000000000000000000000000000000000000000000000000000000000000000000000000000000000000000000000000000000000000000000000000000000000000000000000000000000000000000000000000000000000000000000000000000000000000000000000000000000000000000000000000000000000000000000000000000000000000000000000000000000000000000000000000000000000000000000000000000000000000000000000000000000000000000000000000000000000000000000000000000000000000000000000000000000000000000000000000000000000000000000000000000000000000000000000000000000000000000000000000000000000000000000000000000000000000000000000000000000000000000000000000000000000000000000000000000000000000000000000000000000000000000000000000000000000000000000000000000000000000000000000000000000000000000000000000000000000000000000000000000000000000000000000000000000000000000000000000000000000000000000000000000000000000000000000000000000000000000000000000000000000000000000000000000000000000000000000000000000000000000000000000000000000000000000000000000000000000000000000000000000000000000000000000000000000000000000000000000000000000000000000000000000000000000000000000000000000000000000000000000000000000000000000000000000000000000000000000000000000000000000000000000000000000000000000000000000000000000000000000000000000000000000000000000000000000000000000000000000000000000000000000000000000000000000000000000000000000000000000000000000000000000000000000000000000000000000000000000000000000000000000000000000000000000000000000000000000000000000000000000000000000000000000000000000000000000000000000000000000000000000000000000000000000000000000000000000000000000000000000000000000000000
#07552:63
#00456:0033
#0045b:0043
#00457:00000043
#00452:00000033
#00852:53
#00857:53
#02352:0000000000000054
#02458:00240000000000000000000000000000
#0265b:0053
#02657:0000000000000000000000000000000000000000002300000000000000000000
#02656:0000000000000013
#0275b:0000005300000000
#03356:53
#03352:00000023000000000000000000000000
#04352:1313
#04357:1313
#0015b:53
#00152:00630000
#00257:0053
#00552:63
#0055b:00530000
#00656:0063
#00657:00000000000000000000005300000000
#01759:00430000
#0175b:0043
#01757:43
#0205b:00000063
#02052:00000033
#06052:0063
#06152:0063006300630000
#06155:00636363
#02255:00000000006300000000000000000000
#02258:00630000
#02252:0013
#0225b:0013
#02552:63
#02557:43
#02556:00330000
#01858:0000000000000016
#03055:00530000
#03058:00000000005300000000000000000000
#03052:0013
#0305b:0013
#02852:00000053
#0285b:00000043
#03255:0013
#03258:0013
#03458:0016
#03452:0016
#03958:4242
#0395c:00420000
#03952:52
#03957:00220000
#0385c:0042
#03852:00000032
#0455b:1313
#04556:1313
#05052:0053
#05057:0053
#05056:00000013
#0515b:53
#05152:00000053000000000000000000000000
#0655b:0053005300530000
#06558:00535353
#06356:4424002400000000
#06352:64340000
#0635a:00544400
#06452:00000000000000000000005300000000
#0645b:0053
#06656:0000000048000048
#06652:00000000000000000000003800000000
#06752:3333
#0675b:00430043
#06952:00330033
#0695b:4343
#07458:00000053
#07455:00000063
#07452:0053
#0745b:0063
#05252:00000034
#05256:0000000034000044
#0525a:0000000000440000
#0555b:0000001300000000
#05552:0000000000000013
#0013b0:13
#001370:00230000
#001321:00130000
#001361:0023
#002371:0013
#0023b1:00000000000000000000002300000000
#005321:13
#005361:00230000
#0053b0:00130000
#005370:0023
#006360:0013
#006320:00000000000000000000002300000000
#006371:00000000000000000000001300000000
#0063b1:0000000000000023
#008321:13
#008361:00230000
#008370:13
#0083b0:00230000
#013380:0000122200000000
#0133a0:0000000012220000
#014360:0000122200000000
#014340:0000000012220000
#0153c0:0000122200000000
#015390:0000000012220000
#016320:0000122200000000
#016350:0000000012220000
#0163b1:000000000000000000000000000000125252220000000000
#0163c1:000000000000000000000000000000000000000000000000000000000000005200520052000000000000000000000000
#016330:000000000000000000000000000000000000125252220000
#016320:000000000000000000000000000000000000000000000000000000000000000000000000005200520052000000000000
#016371:000000000000000000000000000000000000000000125252
#016381:000000000000000000000000000000000000000000000000000000000000000000000000000000000000005200520052
#017371:23
#0173b1:00000000000000000000001300000000
#017371:0000000000000023
#018321:00000000000000001600002600000000
#018380:00000000000000000000001600260000
#019320:0013000000000000
#019360:00230000
#0193b0:0000001323000000
#019361:0013
#019321:0000000000230000
#019371:0000000000001323
#0203b1:00000013
#021371:23
#021321:0000000013230000
#021380:0000000000132300
#021351:0000000000001323
#0213b0:0000000000000013
#0223b0:23
#022380:00130000
#0223b0:0023
#022351:00000000001300000000000000000000
#022321:0023
#023321:13000053330000000000000000000000
#023361:00533300005323000000000000000000
#0233b1:00000000000000001300005333000000
#023371:00000000000000000053330000532300
#023320:0000000000000014
#024380:00540000000000000000000000000000
#024320:00240000
#025320:13
#025360:00230000
#0253b0:0000000013000023
#025360:00000000000000000000003300000000
#0263b0:13
#026370:0023000000000000
#026321:0013000000000000
#026361:00230000
#0263b0:00130000
#026370:0000002300000000
#026321:0000001300000000
#026361:0023
#0263b0:00000000000000001300000000230000
#026370:0000000000000000000000000000000000000000005300000000000000000000
#0273b0:0000001300000000
#027370:0000000000230000
#028320:00000013
#029360:23
#0293b0:0000000013230000
#029351:0000000000132300
#029380:0000000000001323
#029321:0000000000000013
#030321:23
#030351:00130000
#030321:0023
#030380:00000000001300000000000000000000
#0303b0:0023
#0313b0:1323000000000000
#031370:0000132300000000
#0313b0:0000000013230000
#031370:0000000000001323
#032380:00132300
#032351:00000000001300002300000000000000
#033361:1300002300000000
#033321:00000053000000000000000000000000
#034321:1626000000000000
#034381:0000162600000000
#0353c1:1222
#035371:00320000
#036381:0012
#0363c1:00000000000000000000002200000000
#037361:0012003200320032
#037321:00323232
#038321:22
#0383c0:12
#038380:0022000000000000
#038361:0012000000000000
#038321:00220000
#038380:00120000
#0383c0:0000002200000000
#038321:0000001200000000
#038361:0022
#039321:1222
#039371:00320000
#040361:0012
#040321:00000000000000000000002200000000
#040380:00000000000000000000001200000000
#0403c0:0000000000000022
#041380:0012003200320032
#0413c0:00323232
#0423c0:22
#043320:00130000
#043360:0000002300000000
#043320:00000013
#043360:0000000000000023
#044320:1300002300000000
#0443b0:0000000013000023
#0453b0:00130000
#045370:0000002300000000
#0453b0:00000013
#045370:0000000000000023
#0463b0:1300002300000000
#046320:0000000013000023
#047370:13
#0473b0:00230000
#047320:0013
#047360:0000000000230000
#0473b0:00000013
#047370:0000000000000023
#048360:1424000000000000
#048360:0000001424000000
#048360:0000000000001424
#049320:00000000000000000000001400002400
#0493a1:00000000000000000000001400002400
#050321:0013
#050361:00000023
#050370:0013
#0503b0:00000023
#0513b0:13
#051370:00000023000000000000000000000000
#051321:00000013000000000000000000000000
#051361:0000002300000000
#053321:13
#053331:003300000000000000000000000000000000000000000000
#053341:003300000000000000000000
#053361:0023000000000000
#0543b1:13
#054371:0023000000000000
#054361:00130000
#054321:0000002300000000
#054321:0013
#054361:0000000000230000
#054371:00000013
#0543b1:0000000000000023
#057361:13
#057321:0023000000000000
#057371:00130000
#0573b1:0000002300000000
#0593a1:14240000
#059361:0054000000000000
#059320:00142400
#059360:0000005400000000
#060320:0013
#060370:00000000000000000000002300000000
#060370:00000000000000000000000000132300
#061320:0013005300530023
#061350:00535353
#0623a0:0000142400000000
#063320:14240000
#063360:0054000000000000
#0633a1:00142400
#063361:0000005400000000
#0643b1:0013
#064361:00000000000000000000002300000000
#064320:00000000000000000000001300000000
#064370:0000000000000023
#0653b0:0013005300530023
#065380:00535353
#0663b0:13
#066380:00000026000000000000000000000000
#066321:00000016000023000000000000000000
#066321:00000000000000001400002800000000
#0663a0:00000000000000000000001400000000
#066360:0000000000000028
#067320:00130000
#067360:0000002300000000
#067320:00000013
#067360:0000000000000023
#0683b0:0000132300000000
#068320:0000000000001323
#0693b0:00130000
#069370:0000002300000000
#0693b0:00000013
#069370:0000000000000023
#070320:0000132300000000
#0703b0:0000000000001323
#0723b0:0000132300000000
#072320:0000000000001323
#0733a0:00000000000000000000001400002400
#073321:00000000000000000000001400002400
#0743b1:0013
#074381:00000033
#0753b1:33
#075371:0000005400000000
#0753a1:00000024
#074320:0013
#074350:00000033
#075320:33000024
#075350:000000000000000000000000000000000000000000000000000000000000000000000000000000000000000000000000000000000000000000000000000000000000000000000000000000000000000000000000000000000000000000000000000000000000000000000000000000000000000000000000000000000000000000000000000000000000000000000000000000000000000000000000000000000000000000000000000000000000000000000000000000000000000000000000000000000000000000000000000000000000000000000000000000000000000000000000000000000000000000000000000000000000000000000000000000000000000000000000000000000000000000000000000000000000000000000000000000000000000000000000000000000000000000000000000000000000000000000000000000000000000000000000000000000000000000000000000000000000000000000000000000000000000000000000000000000000000000000000000000000000000000000000000000000000000000000000000000000000000000000000000000000000000000000000000000000000000000000000000000000000000000000000000000000000000000000000000000000000000000000000000000000000000000000000000000000000000000000000000000000000000000000000000000000000000000000000000000000000000000000000000000000000000000000000000000000000000000000000000000000000000000000000000000000000000000000000000000000000000000000000000000000000000000000000000000000000000000000000000000000000000000000000000000000000000000000000000000000000000000000000000000000000000000000000000000000000000000000000000000000000000000000000000000000000000000000000000000000000000000000000005400000000000000000000000000000000000000000000000000000000000000000000000000000000000000000000000000000000000000000000000000000000000000000000000000000000000000000000000000000000000000000000000000000000000000000000000000000000000000000000000000000000000000000000000000000000000000000000000000000000000000000000000000000000000000000000000000000000000000000000000000000000000000000000000000000000000000000000000000000000000000000000000000000000000000000000000000000000000000000000000000000000000000000000000000000000000000000000000000000000000000000000000000000000000000000000000000000000000000000000000000000000000000000000000000000000000000000000000000000000000000000000000000000000000000000000000000000000000000000000000000000000000000000000000000000000000000000000000000000000000000000000000000000000000000000000000000000000000000000000000000000000000000000000000000000000000000000000000000000000000000000000000000000000000000000000000000000000000000000000000000000000000000000000000000000000000000000000000000000000000000000000000000000000000000000000000000000000000000000000000000000000000000000000000000000000000000000000000000000000000000000000000000000000000000000000000000000000000000000000000000000000000000000000000000000000000000000000000000000000000000000000000000000000000000000000000000000000000000000000000000000000000000000000000000000000000000000000000000000000000000000000000000000000000000000000000000000000000000000000000000000000000000000000000000000000000000000000000000000000000000000000000000000000000000000000000000000000000000000000000000000000000000000000000000000000000000000000000000000000000000000000000000000000000000000000000000000000000000000000000000000000000000000000000000000000000000000000000000000000000000000000000000000000000000000000000000000000000000000000000000000000000000000000000000000000000000000000000000000000000000000000000000000000000000000000000000000000000000000000000000000000000000000000000000000000000000000000000000000000000000000000000000000000000000000000000000000000000000000000000000000000000000000000000000000000000000000000000000000000000000000000000000000000000000000000000000000000000000000000000000000000000000000000000000000000000000000000000000000000000000000000000000000000000000000000000000000000000000000000000000000000000000000000000000000000000000000000000000000000000000000000000000000000000000000000000000000000000000000000
#076360:1424000000000000
#076360:0000142400000000
#077380:0000122200000000
#077360:0000000012220000
#078360:0000122200000000
#078380:0000000012220000
#079380:0000122200000000
#079360:0000000012220000
