This file was generated by Ched 2.6.4.0.
#TITLE ""
#ARTIST ""
#DESIGNER ""
#DIFFICULTY 0
#PLAYLEVEL
#SONGID ""
#WAVE ""
#WAVEOFFSET 0
#JACKET ""
#REQUEST "ticks_per_beat 480"
#00002: 4
#BPM01: 170
#00008: 01
#TIL00: ""
#HISPEED 00
#MEASUREHS 00
#0011a:14141400
#00214:14141400
#00318:1414
#00312:00140000
#00414:1414
#0041a:00140000
#00512:14141400
#00618:14141400
#00714:1414
#0071a:00140000
#00818:1414
#00812:00140000
#0091a:14001414
#00910:41
#01012:14001414
#01118:14001414
#01214:14001414
#0131a:14
#01312:0014
#01318:00000014
#01412:14
#0141a:0014
#01414:00000014
#0151a:14
#01514:0014
#01518:00000014
#01612:14
#01618:0014
#01614:00000014
#0171a:1414
#01714:00140014
#02512:1414
#02518:00140014
#01912:1414
#01918:00140014
#02014:1414
#0201a:00140000
#02118:1414
#02112:00140014
#02110:41
#02314:1414
#0231a:00140000
#0271a:1414
#02714:00140014
#02818:1414
#02812:00140000
#02914:1414
#0291a:00140014
#03118:1414
#03112:00140000
#03512:00160000
#03518:26001414
#03514:0000000000140000
#03510:41
#03612:16
#03618:0000160000140000
#03614:00001414
#0371a:14
#03714:00140000
#03812:14
#03818:00140000
#03918:16001414
#03912:0000160000140000
#04012:16
#04018:00160000
#04014:00001414
#0401a:0000000000140000
#04118:14
#04112:00140000
#04214:14
#0421a:00140000
#0441a:00140000
#04416:0014
#04412:00000014
#04612:00140000
#04616:0014
#0461a:00000014
#0481a:00140000
#04816:0014
#04812:00000014
#04918:16
#04912:00160000
#0491a:00001414
#04914:0000000000140000
#0431a:14
#04317:0014
#04318:00340034
#0551a:14
#05516:00140014
#05512:0014
#05712:14
#05716:00140014
#0571a:0014
#05912:00160000
#05918:26000014
#0591a:0014
#05914:0000000000140000
#0591f:21
#06012:1614
#06018:0000160000140000
#06014:00000014
#06010:41
#0611a:14
#06114:00140000
#06212:14
#06218:00140000
#06318:1614
#06312:00160000
#0631a:00000014
#06314:0000000000140000
#06412:16000014
#06418:0000160000140000
#06414:0014
#06518:14
#06512:00140000
#06614:14
#0661a:00140000
#07318:16
#07312:00160000
#0731a:00001414
#07314:0000000000140000
#0671a:14
#06712:00140000
#06718:0014
#06714:00000014
#06912:14
#0691a:00140000
#06914:0014
#06918:00000014
#07012:14
#07514:0000001400000000
#07518:0000001400000000
#07512:24
#0751a:24
#04512:14
#04515:0014
#04514:00340034
#04717:14
#0471a:0014
#04719:00340034
#04710:41
#0681a:14
#07118:14
#07114:00140000
#0711a:0014
#07112:00000014
#07110:41
#07218:14
#07418:1424
#07412:1424
#07414:00140024
#0741a:00140024
#07615:16161600
#07719:14
#07713:14
#0771a:0014
#07712:00000014
#07813:14
#07819:14
#07812:0014
#0781a:00000014
#07919:14
#07913:14
#07918:0014
#07914:00000014
#08013:14
#08019:14
#08014:0014
#08018:00000014
#08119:14
#08113:14
#0511f:11
#03412:24
#03416:00240000
#0341a:0024
#05012:2424
#05018:2424
#05014:00240000
#0501a:00240000
#0435a:64
#04357:0024
#07554:0000002400000000
#07552:54
#07558:0000002400000000
#0755a:64
#04552:54
#04555:0024
#04757:54
#0475a:0024
#0245a:00140000
#03252:0014
#0345a:0014
#0183a0:1434343424000000
#022380:1424
#0233a0:0000000000001434
#0243a0:00240000
#026320:1434343424000000
#030340:1424
#031320:00000014
#032320:34342400
#0333a0:1424
#037380:00001424
#038340:00001424
#0413a0:00001424
#042320:00001424
#0433a0:14
#043380:00340034
#043370:0034
#0443a0:24
#045320:14
#045340:00340034
#045350:0034
#046320:24
#047370:14
#047390:00340034
#0473a0:0034
#048370:24
#051320:14
#051340:0034
#052320:3424
#053380:14
#0533a0:0034
#054380:3424
#0563a0:14
#056380:00003424
#058320:14
#058340:00003424
#061380:00001424
#061321:00001424
#062341:00001424
#0623a0:00001424
#0653a0:00001424
#065341:00001424
#066321:00001424
#066380:00001424
#0683a0:00140000
#068380:0034
#068360:00000024
#070320:00140000
#070340:0034
#070360:00000024
#0723a0:00140000
#072380:0034
#072360:00000024
#075320:14000024
#075340:0000005400000000
#0753a1:14000024
#075381:0000005400000000
