This file was generated by Ched 2.7.0.0.
#TITLE ""
#ARTIST ""
#DESIGNER ""
#DIFFICULTY 0
#PLAYLEVEL
#SONGID ""
#WAVE ""
#WAVEOFFSET 0
#JACKET ""
#REQUEST "ticks_per_beat 480"
#00002: 4
#BPM01: 124
#00008: 01
#TIL00: ""
#HISPEED 00
#MEASUREHS 00
#00119:14
#00213:14
#00319:14
#00413:14
#0051a:14
#00614:14
#00718:14
#00812:14
#0091a:14
#00910:41
#0101a:14
#01114:14
#01214:14
#01718:14
#0171f:11
#01814:14
#01918:14
#02014:14
#0211a:14
#02212:14
#0231a:14
#02412:14
#02618:1616
#02610:41
#02812:1616
#02512:0016
#02518:26
#0251f:21
#02718:0016
#02712:26
#02912:0016
#02918:26
#03114:14
#03218:14
#03412:1616
#03618:1616
#03318:0016
#03312:26
#03310:41
#03512:0016
#03518:26
#03718:0016
#03712:26
#03918:14
#03910:41
#04014:14
#04112:0016
#04118:26
#04218:16
#04212:0016
#04512:14
#04510:41
#04618:14
#04714:14
#0481a:14
#04912:14
#05018:14
#01610:41
#013380:14
#014380:24
#015320:14
#016320:24
#030380:1626
#038320:1626
#043380:16363636
#044380:26
#051340:1400000034343424
