This file was generated by Ched 2.7.0.0.
#TITLE ""
#ARTIST ""
#DESIGNER ""
#DIFFICULTY 0
#PLAYLEVEL
#SONGID ""
#WAVE ""
#WAVEOFFSET 0
#JACKET ""
#REQUEST "ticks_per_beat 480"
#00002: 4
#BPM01: 124
#00008: 01
#TIL00: ""
#HISPEED 00
#MEASUREHS 00
#0011b:13
#00112:13160000
#00114:00000016
#00518:00001300001300000013000000000013
#00515:00000013000000130000000000001300
#0051b:23000000000000130000000000130000
#00512:23000000001300000013000000000000
#00615:00001300001300000000000000000000
#00618:00000013000000130000000000000000
#0061b:23000000001300000000130000000000
#00612:23000000000000130000000000001300
#00718:00001300001300000000001300000000
#00715:00000013000000000013000013000000
#00712:23000000000000130000000000001300
#0071b:23000000000000130000000000001300
#00216:00160000
#00218:00000016
#00818:00000000000000000000000000130013
#00815:0000000000000013
#00812:0013130000001300
#0081b:00001300000000130000000000000000
#00819:00000000001300000013000000000000
#00816:0013
#00814:0000001300130000
#00817:00000000000000000000001300000000
#00917:00001313000000000000000000000013
#00912:23000013000000000000000000000013
#00915:00000000001300000000000000130000
#00918:00000000000000130000001300000000
#0091b:23000000000000000013000000000000
#00916:00000000000000000013000000000000
#00910:41
#0101b:0013000000130000
#01015:00000000000000000000000000130013
#01018:0000000000000013
#01017:0000141400000000
#01012:00000000001400240000000000000000
#01016:0000000000130000
#01218:00000000000013000000000000130013
#01215:00000000001300000000000000001300
#01212:00001300130000000000001400000000
#0121b:00000000000000130000000000000000
#01216:00000000000000000014000000000000
#01317:00000013000000000013000000000000
#0131b:23000000001300000000000000000000
#01319:00000000000000130000000000000000
#01316:00000000001300000000000000000000
#01314:00000000000000130000000000000000
#01312:00000000000000000013000000000000
#01315:23000000000000000000000000130013
#01318:0000000000000013
#01418:2300000000000013
#01416:00000013000000000000000000000000
#01414:00000000001300000000000000000000
#01412:23000000000000130000000000000000
#01419:00000000001300000000000000000000
#01417:00000000000000130000000000000000
#01515:13000013000000000013001300001300
#01518:00001300001300130000000000130013
#0151b:00000000000000000013000000000000
#01512:00000000001300000000000000000000
#01612:00000000000013000013000000130000
#01615:00000000130000000000001300000013
#0161b:0000001300000000000000001300000023000000000000002300000000000000
#01618:0000000000130013
#01610:41
#01718:00001300001300130000000000130000
#01715:0000130013130000
#0171b:23000000000000000000001300000000
#01712:2300000000000013
#0171f:11
#01815:1300130000000016
#01818:00130013000000000000000000000000
#0181b:0000001300130000
#01817:0013
#01812:0013
#01816:0000000000130000
#0201b:00000000130000001300000000130013
#02015:0000000000000013
#02016:14000014000000001300000000000000
#02012:00130000000013000000130000000000
#02017:0000000000130000
#02112:13000000000000000000130000130013
#02118:00130000000000000000130000001300
#02114:0013000000000000
#0211a:00000013000000000000000000000000
#02116:00000000130000130000000000000000
#0211b:0000001313000000
#02216:0000130000000013
#0221a:00000000001300000000000000000000
#02214:0000001300000000
#02218:00000000000000130000000000000000
#02212:0013
#0221b:1313000000130013
#02215:00130000000000000000130000000000
#02318:0000000000000013
#02317:13
#02319:0013000000130000
#02314:0000001300000000
#0231b:00000013
#02312:0000000000000013
#02418:0000001300001313
#0241b:0000000013130000
#02412:0000000013130000
#02415:00000000130000000000000000130013
#0251b:0013
#02518:2600260000130000
#02515:00000013
#02512:2300130000000013
#02516:0013001300000000
#0251f:21
#0261b:1300130000000013
#02618:0013001300001300
#02615:1300130000130000
#02612:0013001300000000
#02610:41
#02815:0013001300001300
#02818:1300130000000013
#02812:13130000
#0281b:0013001300000000
#02918:0000000000130013
#02915:00000013
#02916:0014001400000000
#02912:2413
#0291b:00000013
#0291a:24240000
#0301b:1300001300000000
#03015:0013000000000000
#03018:0000130000260000
#03012:1300001300260000
#03115:13000013000000000013000000130000
#03118:00001300000000130000000000001300
#0311b:00000000001300000000001300000000
#03112:00000000001300000000001300000000
#03218:0000001313000013
#03215:0000000000131300
#03212:00132300
#0321b:00000023
#0341b:0013001300130000
#03412:1300130000130000
#03418:23230013
#03415:0023002300000013
#0361b:1300130000130000
#03617:00000013
#03619:0000000000000013
#03612:0013001300001300
#03616:0000000000130000
#03614:0000000000000013
#03615:23230000
#03618:0023002300000000
#03715:0000000000130013
#03718:00000013
#03712:0013
#0371a:24
#03716:24240000
#03818:0013000000260013
#03815:00130000
#0381b:2300001300000000
#03812:2300001300260000
#03915:13000013000000000013001300000013
#03918:00001300001300130000000000130000
#0391b:00000000000000000000000000000013
#03910:41
#04018:00130000000000001300000013001300
#04015:00001300000000000000130000130000
#0401b:0000001300000000
#04418:13000000000000000013000000000000
#04415:00130013000000001300000000000000
#04412:00000000001300000000130000130013
#0441b:00000000000000130000001300000000
#04417:0000000000000013
#04519:13
#04514:00130000000000000000000000000000
#0451b:00001300000000000000000000130013
#04516:00000013000000130000000000000000
#04512:00000000000000000013001300001300
#04517:0000000000130000
#04510:41
#04616:0000000000000013
#0461b:00000000001300000000130000130013
#04615:13000000000000000013000000000000
#04618:00130013000000001300000000000000
#04612:00000000000000130000001300000000
#04716:13
#04712:00001300001300130000000013230000
#04717:00000013000000000000000000000000
#04718:0000000000000000000000000000000000001300000000000000000000130000
#04715:0000000000000000000000000000000000000000130000000000000000130000
#0471b:00000000001300130000000013230000
#04815:0013000000000013
#04818:00000013000000000000000000000013
#0481b:00000000001300000013000000130000
#04812:00000000001300001300000000000000
#04816:00000000000000000000131300000000
#04817:00000000000000130000000000000000
#04915:13000000000000000000001300000000
#04918:00130013000000000000130000000000
#04912:00001300000000130000000000001300
#0491b:00000000001300000013000000130013
#04916:00000000001300000000000000000000
#04917:00000000000000130000000000000000
#05015:1300000000000013
#05018:00130000000000000000000000000013
#05012:00001300001300000013000000130000
#0501b:00000013001300001300000000000000
#05017:00000000000000000000131300000000
#05016:00000000000000130000000000000000
#05112:14140000000000000000130000000000
#05117:0000000000130000
#05119:00000013
#0511b:0000000023000013
#05114:00000013
#05116:0000000000000013
#05118:0023000000000000
#05115:00000000002300000000000000000000
#0031b:13
#00312:13
#00318:00160000
#00316:00000016
#00414:00160000
#00412:00000016
#01116:00001313000000000000000000000013
#0111b:23000013000000000000000000000013
#01118:00000000001300000000000000130000
#01115:00000000000000130000001300000000
#01112:23000000000000000013000000000000
#01117:00000000000000000013000000000000
#01915:00001300000000130000000000000000
#01918:00130000
#01912:23000000001300000000001400000000
#0191b:2313
#01917:0000000000130000
#01916:00000000000000000000000000130000
#0191a:0000000000000014
#02712:26261300
#02715:0000000000130000
#02718:00000013
#0271b:2300130000000013
#02717:0013001300000000
#03316:0014240000000000
#0331a:2400001400000000
#03312:2413
#03318:0000000000130000
#0331b:00000013
#03315:0000000000001313
#03310:41
#03516:0014240000000000
#03512:2400001400001300
#0351b:0013
#03515:0000000000130000
#03518:0000000000001313
#0351a:24
#04118:0000000000130013
#04115:00000013
#0411b:0013
#04112:24
#04116:24240000
#04318:13000013000000000013000000130000
#04315:00001300000000130000000013000000
#04312:00000000001300000000000000001300
#0431b:00000000001300000000001300000000
#04212:2300002300260000
#04218:0000230000260000
#0421b:2300002300000000
#04215:0023000000000000
#00152:00360000
#00154:00000036
#00256:00360000
#00258:00000036
#00358:00460000
#00356:00000046
#00454:00460000
#00452:00000046
#00552:00000000000000000053000000000000
#00652:00000000000000530000000000000000
#0065b:0000000000530000
#00658:0000000000000013
#00755:00000053
#0075b:0000000000000053
#00752:0000000000000063
#00952:00000000000000000000000000000053
#0115b:00000000000000000000000000000063
#01452:00000000000000530000000000000000
#01457:00000000000000530000000000000000
#0145b:0000000000130000
#01456:0000000000130000
#01558:00000000000000000000000000000053
#0165b:0000002300000000000000000000000000000000000000000000000000000000
#01758:00000000001300000000000000000000
#01755:0013
#0175b:00000000000000000000001300000000
#01752:0000000000000013
#01858:00130000000000000000000000000000
#01855:00130000
#01952:00000000001300000000001400000000
#0195b:0013
#0195a:0000000000000014
#02052:00130000000000000000000000000000
#0205b:00130000
#02358:0000000000000053
#02558:46460000
#02552:53530000
#02556:0023002300000000
#02757:0023002300000000
#0275b:63630000
#02752:36360000
#0285b:0000005300000000
#02855:0000005300000000
#02858:0000000000130000
#02852:0000000000130000
#0295a:44640000
#02952:54340000
#02956:0024002400000000
#03158:0000000000000053
#03356:0024540000000000
#0335a:4400002400000000
#03352:54340000
#03556:0024640000000000
#03552:3400002400000000
#0355a:64440000
#0375a:14
#03752:00140000
#03756:54540000
#0385b:0000004300000000
#03852:0000003300360000
#03858:0000000000460000
#03052:0000003300360000
#0305b:0000004300000000
#03058:0000000000460000
#03955:00000053000000000000005300000000
#03958:00000000000000530000000000000000
#04055:0053000000000000
#04152:14
#04156:64640000
#0415a:00140000
#04252:0000003300360000
#04258:0000000000460000
#0425b:0000004300000000
#04352:0000000000000053
#0085b:0013000000000000
#00852:0013000000000000
#0445b:00000000000000000000006300000000
#04652:00000000000000000000005300000000
#0475b:00000000000000000000000000530000
#04758:0000000000000000000000000000000000000000000000000000000000230000
#04755:0000000000000000000000000000000000000000000000000000000000230000
#04752:00000000000000000000000000630000
#0485b:43
#04852:33
#005320:00000000000000000013000000000000
#005350:00000000000000000000000000230000
#006320:00000000000000130000000000000000
#006350:0000000000230000
#0063b1:0000000000130000
#006381:0000000000000023
#007351:00000013
#007321:0000000000000033
#008351:23
#0073b0:0000000000000013
#008380:23
#009320:00000000000000000000000000000013
#010360:0023000000000000
#0113b0:00000000000000000000000000000013
#012370:0023000000000000
#013320:00001323000000000000000000000000
#0143b0:00001323000000000000000000000000
#014370:00000000000000130000000000000000
#0143b0:0000000000230000
#014321:00000000000000130000000000000000
#014361:0000000000230000
#015381:00000000000000000000000000000013
#0163b1:0000005300000000000000000000000000000000000000000000000000000000
#016381:00230000
#023321:13
#023341:0033000000000000
#023361:00230000
#0233b0:00130000
#023390:0000003300000000
#023370:0023
#023321:0013
#023341:0000000000330000
#023361:00000023
#023381:0000000000000013
#0243b1:00230000
#025321:13332300
#025361:0053005300000000
#0273b1:13332300
#027371:0053005300000000
#0283b1:0000001300000000
#028381:0000000000230000
#028350:0000001300000000
#028320:0000000000230000
#029320:14240000
#029360:0054000000000000
#0293a1:00142400
#029361:0000005400000000
#030381:0000000000000013
#031381:23
#031381:0000000000000013
#0323b1:00230000
#033321:14240000
#033361:0054000000000000
#033360:00142400
#0333a0:0000005400000000
#0353a0:14240000
#035360:0054000000000000
#035361:00142400
#035321:0000005400000000
#037361:14
#037321:00240000
#037360:00140000
#0373a0:0024
#039350:00000013000000000000000000000000
#039320:00000000002300000000000000000000
#039380:00000000000000130000000000000000
#0393b0:00000000000000000023000000000000
#039350:00000000000000000000001300000000
#039320:00000000000000000000000000230000
#040350:0013000000000000
#040320:0000002300000000
#041360:14
#0413a0:00240000
#041361:00140000
#041321:0024
#042351:0000000000000013
#043351:23
#043321:0000000000000013
#044351:23
#0443b1:00001323000000000000000000000000
#0443b1:00000000000000000000001300000000
#044371:00000000000000000000000000230000
#0453b1:00000000001300230000000000000000
#046321:00001323000000000000000000000000
#046321:00000000000000000000001300000000
#046361:00000000000000000000000000230000
#0473b1:00000000000000000000000000130000
#047381:0000000000000000000000000000000000000000000000000000000000530000
#0483b1:23
#047320:00000000000000000000000000130000
#047350:0000000000000000000000000000000000000000000000000000000000530000
#048320:23
#051380:00001300002300000000000000000000
#051351:00000000001300002300000000000000
