This file was generated by Ched 2.7.0.0.
#TITLE ""
#ARTIST ""
#DESIGNER ""
#DIFFICULTY 0
#PLAYLEVEL
#SONGID ""
#WAVE ""
#WAVEOFFSET 0
#JACKET ""
#REQUEST "ticks_per_beat 480"
#00002: 4
#BPM01: 124
#00008: 01
#TIL00: ""
#HISPEED 00
#MEASUREHS 00
#0011b:13
#00113:00140000
#00115:00000014
#00112:13
#00515:0013000000000000
#00518:00000013000000000000000000001300
#0051b:23000000000000130000000000000000
#00512:00000000001300000013000000000000
#0061b:00000000001300000000000000001300
#00618:0013000000000000
#00615:00000013000000000000000000000000
#00612:23000000000000130000000000000000
#00718:00001300000000000013000013000000
#00715:00000013000000000000001300000000
#0071b:00000000001300000000000000000000
#00712:23000000000000130000000000000000
#00217:00140000
#00219:00000014
#00815:0000001300000013
#0081b:0013000000130000
#00818:00001313
#00812:13130000
#00918:00001300000000000013000000000000
#00915:00000013000000130000000000000000
#0091b:00000000001300000000000000130000
#00912:23000000000000000000001300000013
#00910:41
#01015:00000000001300230000000000001300
#01018:0000131300001300
#0121b:00000000000000000000000000130000
#01215:00000000000000000000001300001300
#01218:00000000000000000013000000000013
#01212:00000000003333000000000000000000
#01315:00000013000000000000000000000013
#0131a:00000000001400000000000000000000
#01316:00000000000000140000000000000000
#01312:23000000000000000014000000130000
#01318:0013000000000013
#01415:0013000000000013
#01418:00000013000000140000000000000000
#01414:00000000001400000000000000000000
#0141b:23
#01518:13000013000000130000000000001300
#01515:00001300000000000013000000130013
#0151b:00000000000000000000001300000000
#01512:00000000001300000000000000000000
#01715:00001300001300000000001300000000
#0171b:2300130000130000
#01718:00000000000000130000000000130000
#01712:2300000013000013
#0171f:11
#01818:13000013000000001300130000000000
#01815:00130000130000000000000000001300
#0181b:0000001300000000
#01812:0000000013130000
#0201b:00000000000000001300130000130013
#02015:13000013000000001300130000001300
#02018:00130000130000000000000000000000
#02012:0000001300000000
#02118:0000001300000013
#02115:00000000000000001300000000130013
#0211b:0000000000130000
#02112:00333333000000000000130000000000
#0221b:00000000003333330000130000000000
#02212:0013000000130013
#02218:13
#02315:1300001300000013
#02318:0013000000130000
#0231b:00130013
#02312:0013
#02418:0000001300130013
#02415:00001313
#0251b:0013
#02515:0000000000130000
#02518:00000013
#02512:0000000000000013
#0251a:24240000
#02514:24240000
#0251f:21
#0261b:1313000000000000
#02612:0000131300000000
#02615:1313000000130013
#02618:0000131300001300
#02610:41
#02815:0000131300001300
#02818:1313000000000013
#02812:1313000000000000
#0281b:0000131300000000
#02915:0000000000130013
#02918:00241313
#0291a:24
#02914:24
#02912:00240000
#03018:0013000000260000
#03015:00130000
#0301b:13
#03012:0000001300000013
#0311b:13000000000000000000001300000000
#03115:00001300000000000013000000130000
#03118:00000013000000130000000000001300
#03112:00000000001300000000000000000000
#03612:1313000000001300
#03615:0000232300000013
#03618:2323000000130000
#0361b:0000131300000000
#03818:0000130000000013
#03815:0013000000000000
#0381b:0000001300000000
#03812:2300000000260000
#03915:13
#03918:0013000000000000
#0391b:00000000000000000000000000000013
#03910:41
#04015:00130000000000001300000013001300
#04018:00001300000000000000130000130000
#04415:00001300000000000033330000001300
#0441b:13000000000000000000000000130013
#04418:00000013000000130000000000000000
#04412:13000000001300000000000000000000
#04515:13000013000000130000000000130013
#04518:00001300001300000013001300000000
#04512:0000000000130000
#0451b:0000000000000013
#04510:41
#04718:00001300001300000013000013000000
#04715:13000013000000000000130000230000
#04712:00000000000000130000000000000000
#0471b:00000000000000130000000000000000
#05118:0026000000131300
#0511b:0000000000000013
#05112:0000000026131300
#05115:00000000002600000000000000001300
#01618:0000001300130013
#01615:00002323
#01610:41
#00312:13
#00319:00140000
#00317:00000014
#0031b:13
#00415:00140000
#00413:00000014
#01115:00001300000000000013000000000000
#01118:00000013000000130000000000000000
#01112:00000000001300000000000000130000
#0111b:23000000000000000000001300000013
#01918:00001300001300000000001300000000
#01912:2300130000130000
#01915:00000000000000130000000000130000
#0191b:2300000013000013
#02712:24241300
#02718:2400240000130000
#02715:00000013
#0271b:0000000000000013
#03215:0000001300130013
#03218:00002323
#0331b:0013
#03315:0000000000130000
#03318:26000013
#03312:0000260000000013
#03310:41
#0341b:1313000000000000
#03412:0000131300000000
#03415:2323000000001300
#03418:0000232300130013
#03718:2600000000130013
#03715:00001313
#03712:00260000
#04112:24241300
#04115:0000000000130000
#04118:00000013
#0411b:0000000000000013
#0411a:24240000
#04312:13000000000000000000001300000000
#04318:00001300000000000013000013000000
#04315:00000013000000130000000000130000
#0431b:00000000001300000000000000001300
#0421b:0000002300000013
#04212:2300000000260000
#04215:0023000000000000
#04218:00230000
#04615:00000000001300000000000000001300
#0461b:00000000000000000000000000130013
#04618:00333300000000130000000000000000
#04612:00000000000000000033330000000000
#04818:00001300000000000033330000001300
#04812:00000000000000000000000000130013
#04815:00000013000000130000000000000000
#0481b:00000000001300000000000000000000
#04918:13000013000000130000000000130013
#04915:00001300001300000013001300000000
#0491b:0000000000130000
#04912:0000000000000013
#05018:00000000001300000000000000001300
#05012:00000000000000000000000000130013
#05015:00333300000000130000000000000000
#0501b:00000000000000000033330000000000
#03512:2613
#03518:0000260000130000
#03515:00000013
#0351b:0000000000000013
#00758:00000063
#00952:00000000000000000000000000000053
#01555:00000000000000000000000000000063
#02355:0000000000000063
#03158:0000000000000053
#04058:0063000000000000
#0085b:0013000000000000
#04755:00000000000000000000000000630000
#00153:00140000
#00155:00000014
#00257:00140000
#00259:00000014
#00359:00140000
#00357:00000014
#00455:00140000
#00453:00000014
#00552:00000000000000000053000000000000
#00652:00000000000000530000000000000000
#0115b:00000000000000000000000000000063
#01458:00000000000000540000000000000000
#0145a:0000000000140000
#0255a:14140000
#02554:14140000
#02752:14140000
#02758:14140000
#0285b:0000005300000000
#02855:0000005300000000
#0295a:14
#02954:14
#02952:00140000
#02958:00140000
#03052:0000001300000000
#03058:0000000000160000
#0385b:0000001300000000
#03852:0000000000160000
#04152:14140000
#0415a:14140000
#0425b:0000001300000000
#04252:0000000000160000
#04852:13
#03358:46
#03352:00360000
#03558:00460000
#03552:36
#03752:00360000
#03758:46
#005320:00000000000000000013000000000000
#005350:00000023
#006320:00000000000000130000000000000000
#006350:0000000000230000
#007380:00000013
#0073b0:0000000000000023
#009320:00000000000000000000000000000013
#010350:0023000000000000
#0113b0:00000000000000000000000000000013
#012380:0023000000000000
#012320:00000000133333000000000000000000
#012350:00000000000000230000000000000000
#014380:00000000000000140000000000000000
#0143a0:0000000000240000
#015350:00000000000000000000000000000013
#016320:00230000
#021320:13333333000000000000000000000000
#021350:00230000
#0223b0:00000000133333330000000000000000
#022380:0023
#023350:0000000000000013
#024320:00230000
#0283b0:0000001300000000
#028380:0000000000230000
#028351:0000001300000000
#028321:0000000000230000
#031381:0000000000000013
#0323b1:00230000
#039351:00000013000000000000000000000000
#039321:00000000002300000000000000000000
#039381:00000000000000130000000000000000
#0393b1:00000000000000000023000000000000
#039351:00000000000000000000001300000000
#039321:00000000000000000000000000230000
#040381:0013000000000000
#0403b1:0000002300000000
#044351:00000000000000001333330000000000
#044321:00000000000000000000002300000000
#046381:13333300000000000000000000000000
#0463b1:00000023000000000000000000000000
#046321:00000000000000001333330000000000
#046351:00000000000000000000002300000000
#047351:00000000000000000000000000130000
#048321:23
#048381:00000000000000001333330000000000
#0483b1:00000000000000000000002300000000
#050351:13333300000000000000000000000000
#050321:00000023000000000000000000000000
#0503b1:00000000000000001333330000000000
#050381:00000000000000000000002300000000
