This file was generated by Ched 2.7.0.0.
#TITLE ""
#ARTIST ""
#DESIGNER ""
#DIFFICULTY 0
#PLAYLEVEL
#SONGID ""
#WAVE ""
#WAVEOFFSET 0
#JACKET ""
#REQUEST "ticks_per_beat 480"
#00002: 4
#BPM01: 124
#00008: 01
#TIL00: ""
#HISPEED 00
#MEASUREHS 00
#00515:00001300000013000013000000001300
#00512:23000013001300000000000000130000
#00518:00130000160000130000130016000013
#0051b:2313
#00718:00000013000013000013000016002600
#00715:00160000001300001300000000000000
#0071b:23000000000000130000130000000000
#00712:23000000130000130000001600160000
#0081b:13001300000000130013000000130000
#00818:00000000001300001300001300001300
#00815:00000000000013000000130000000013
#00812:1313130000001300
#00918:00001300000000130000001300001300
#00912:23000013000000000000000013000013
#00915:00000000161300001600130000130000
#0091b:23000000000000000013000000000013
#00910:41
#01012:00001300000000000000130000130000
#0101a:0000141400000000
#01016:00000000001800280000000000000000
#0101b:0000000000130000
#01018:00000000000000000000000013000013
#01015:0000000000000013
#01212:00000000130000000000140000130000
#01215:00000000001300000000000000001300
#01218:00000000000013000014000000000013
#0121a:00000000000000140000000000000000
#01216:00000000000000000000001400000000
#0121b:0013000000000000
#01214:0014
#01318:00130000130000000000000000001300
#0131b:23000013001300000000000000130000
#01319:00000000000000130000000000000000
#01317:00000000000000000013000000000000
#01316:0000001300000000
#01314:0013
#01312:0000000000130000
#01315:23000000000000000000000000000013
#0141b:0000000013000013
#01415:00130000130000130000000000000000
#01412:23000013001300000000000000001300
#01418:2300001300000000
#01518:1313001300000013
#01512:00000013000000000013000000000000
#01515:00130000000000160000131600000013
#0151b:00000013001300000000000000130000
#01612:00000000000013000000000000000013
#01619:00000000000000000013000000000000
#01615:00000000000000130000001300000000
#01616:00000000000000000000000000130000
#01618:13000023
#0161b:0000001323000000
#01617:0000000000130000
#01614:0000000000000013
#01610:41
#0171b:0013000000000000
#01718:00000000001600000013001600000013
#01712:2c13000016000016
#01715:0000001300001300
#0171f:11
#01818:00160000000000000000000000000000
#01812:0000161300130013
#0181b:0000001300130013
#01815:00001300000000001616000000000000
#02015:00001600000000001616000000001600
#0201b:00000000130013000000130000130013
#02012:00130000000013000000130000000000
#02112:13130000000000001300130000130013
#02118:00001300000000000013000000000000
#02115:00000016130013160000000000001600
#0211b:00000000131300000000000000000000
#0221b:13130000000000001300130000001300
#02216:0000000000000014
#02215:00001316000000160013000000000000
#02212:00000000131300000000000000000000
#02218:0000131300000000
#02415:00130013000013000000001300000013
#02412:13000000130000001313000000130000
#0241b:13131313
#02418:00001300001300130000130000001300
#02519:00000013
#02512:2300000013000013
#02514:00000013
#02517:0013000000000013
#0251a:0000001400000000
#0251b:00002300000000000013000000000000
#02516:0000240000130000
#02518:26
#02515:0000002300000000
#0251f:21
#0261b:1300130013000013
#02618:0013001300001300
#02615:00130000001300000000130000130000
#02612:00000013000013001300001300000000
#02610:41
#02815:00000013000013000000000013000013
#02818:1300130013000013
#02812:00130000001300001300000000130000
#0281b:0013001300000000
#02918:26000000000000000000131300001300
#02915:00000000000014000016000016000013
#02912:23000000000023001300000000130000
#02917:0013000000000000
#0291a:00240000
#0291b:0023000000000000
#03115:13000013000013000000130000001300
#03118:0013000000000013
#0311a:00000000001400000014000000000000
#03116:00000000000000140000001400000000
#0311b:00130000000000000000000000130000
#03112:00131313
#03215:00001300000013000013001300001300
#03218:00130000001300000000130000130013
#0321b:13132300
#03212:00000013000000130000000023000000
#0341b:00000013000000001300000000130000
#03412:00130000001300001300000000000000
#03418:0000000000131300
#03415:26002600260026000000001300001316
#03818:0000130014260013
#03812:0000001300260000
#0381b:0000001300000000
#03814:0014
#03815:0013000000000013
#03912:13000000001300000014000000140000
#03918:00001300130000130000130000001300
#03915:00000013000013000000000000000000
#03916:00000000000000000000001400000014
#0391b:00001313
#03910:41
#0401b:1300001313000000
#04012:00130000130000000013000000000000
#04015:00001300000000000000000016161616
#04018:0013000000000000
#04019:0000000000130000
#04014:00000000000000000000001300000000
#0441b:13000013000000130000000000131313
#04412:00000013001300000000001300000000
#04415:00130000000000001316000000000000
#04418:00001300001300000000131600000000
#04514:13
#04519:00130000000000000000000000000000
#04512:00001300000000000013000013000000
#0451b:00000000000000130000000000000000
#04515:00000000000000000000130000161616
#04518:00000000000000001300001300000000
#04517:00000013000000000000000000000000
#04516:00000000001313000000000000000000
#04510:41
#04715:00000000000000001616160000000000
#04712:0000000000000000000000000000130000000000000000001300230000160000
#0471b:00001300000000000000000013230000
#04718:0000000000000000000000000000000000000000000000000000000000160000
#04719:13
#04714:00130000000000000000000000000000
#04716:00000013000000000000000000000000
#04717:00000000001313000000000000000000
#04815:00001300160016130000160000001600
#04818:00000013000000000000001300000013
#0481b:00130000001300001300000000130000
#04812:00000000001300000013000000000000
#04915:16000000000000000000001300161616
#04918:00130013000000000000130000000000
#04912:00001313000000130000000000000000
#0491b:00000000001300000013000013000000
#04916:00000000001400140000000000000000
#05012:00130000001300001300000000130000
#0501b:13000000001300000013000000000000
#05018:00001300000000130000000000000000
#05015:00000013160016000000161300001613
#05118:16162600002600000000000013001300
#05115:0023000000131300
#0511b:0000000023000013
#05112:00000000002600002300130000000000
#02719:00000013
#0271b:2300000013000013
#02714:00000013
#02716:0013240000000013
#02712:26002300000014000013000000000000
#02717:0000000000130000
#02718:0000002300000000
#03312:2623260000001300
#03315:0000000000130013
#03318:26001313
#03317:0000001300000000
#03316:0013000000000000
#0331b:0000002300000000
#03310:41
#04318:13000013000000130000130000130000
#04315:00001300130000001313000000001300
#04312:13000000000013000000001300000000
#0431b:00000000001300000000000013000000
#00618:00001300000013000013000000001300
#0061b:23000013001300000000000000130000
#00612:23161316
#00615:00130000000000130000130000000013
#0011b:13
#00112:131c0000
#00114:0000001a
#00216:00180000
#00218:00000016
#00212:13
#0021b:13
#00312:131c001a
#0031b:13
#00412:13180016
#0041b:13
#01115:00001300160000131600001300001300
#0111b:23000013000000000000000013000013
#01118:00000000001300000000130000130000
#01112:23000000000000000013000000000013
#01912:2c001300001300000000001300000000
#0191b:0013000013000013
#01915:00000000000016000016000016000016
#02312:1300120000130000
#0231b:0013000000000000
#02318:00000000001200000000120000000000
#02314:0000001200001300
#0231a:00000000000000120000000012000000
#02316:1414000012000013
#0231c:00000000000000000012000000001200
#0301b:0000001300000000
#03014:0014
#03012:0000001300260000
#03018:0013000014260000
#03015:0000130000000013
#03612:00000013000000001300000000130000
#0361b:00130000001300001300000000000000
#03615:26002600260026000000130013000016
#03618:00000000000000000000001300001300
#03715:00002300000023000016131316001300
#0371b:13000000130000001300000000130000
#03712:29291300
#03718:00130013001300130000000000000013
#04112:130013001316191c
#0411b:0013
#04115:29130013291300130000000000000000
#04118:0023002300000000
#04218:00000023000000000000260000001300
#04215:00230000000000000000000000000013
#04212:2326292c00260000
#0421b:00000000002300000000000000000000
#04612:13000013000000130000001600131313
#0461b:00000013001300000000001300000000
#04618:00130000000000001300000000000000
#04615:00001300001300000016130000000000
#0351b:0023000000001300
#03518:2600260000130013
#03515:00001313
#03516:0000001300000000
#03517:0013000000000000
#03512:2600002300000000
#0095b:00000000000000000000000000000063
#01455:00000000000000530000000000000000
#01452:0000000000130000
#0145b:0053
#01458:0000000000130000
#01555:00000000000000000000000000000063
#0285b:0000005300430000
#02855:0000005300430000
#02858:0023
#02852:0023
#03058:0000000024460000
#0305b:0000005300000000
#03054:0024
#03052:0000006300360000
#04252:0000004c00360000
#04258:0000000000460000
#04355:00000000000000000013000000005300
#0435b:00000000001300000000000000000000
#04358:53000000000000130000000000000000
#04352:00000000000000000000001300000000
#0085b:0013000000000000
#00852:0013000000000000
#04452:00000000000000000000005300000000
#0475b:00000000000000000000000000530000
#04752:0000000000000000000000000000000000000000000000000000630000260000
#04758:0000000000000000000000000000000000000000000000000000000000260000
#04756:00000063000000000000000000000000
#0485b:43
#04852:33
#00558:00460046
#00652:00360036
#00152:003c0000
#00154:0000003a
#00256:00380000
#00258:00000036
#00352:004c004a
#00452:00480046
#01152:00000000000000000000000000000053
#0125a:00000000000000440000000000000000
#01258:00000000000000000044000000000000
#01256:00000000000000000000004400000000
#01357:00000000000000000053000000000000
#01352:0000000000530000
#01658:63
#01758:00000000004600000000004600000000
#01752:0000000036000036
#01858:00460000000000000000000000000000
#01852:00360000
#01952:00000000003300000000003300000000
#0195b:0000000043000043
#02052:00330000000000000000000000000000
#0205b:00430000
#02152:0000000033330000
#0225b:0000000043430000
#0315a:00000000001400000014000000000000
#03156:00000000000000140000001400000000
#03155:0000000000000053
#0335b:0000000000430000
#03358:5600460023002346
#03352:36560000
#03357:0000002300000000
#03356:0023000000000000
#03752:39390000
#03852:0000006300360000
#03858:0000000024460053
#0385b:0000005300000000
#03854:0024
#03952:00000000000000000014000000140000
#03956:00000000000000000000001400000014
#04058:0063000000000000
#04555:00000000000000000000000000463646
#04557:00000053000000000000000000000000
#04955:00000000000000000000000000364636
#03555:00002323
#03552:6600360000330036
#03556:0000002300000000
#03557:0023000000000000
#03558:46660000
#02552:53330000
#02556:00540000
#0255a:0000002400000000
#02557:0023000000000000
#02558:46
#02752:3600002400000000
#02756:0023640000000000
#0275b:63430000
#02957:0023000000000000
#02958:46
#0295a:00540000
#02952:53330000
#02955:0000002400000000
#04155:49490000
#0465b:00000000000000000000006300000000
#005320:0000000000132300
#0063b0:0000000000132300
#007350:00001323000000000000000000000000
#0093b0:00000000000000000000000000000013
#010370:0023000000000000
#011320:00000000000000000000000000000013
#012360:0023000000000000
#013350:00001323000000000000000000000000
#013370:00000000000000000013000000000000
#0133b0:00000023
#013321:0000000000130000
#013351:00000023
#014381:00001323000000000000000000000000
#014351:00000000000000130000000000000000
#014321:0000000000230000
#0143b0:0013
#014380:0000000000230000
#015380:00000000000000001323000000000000
#015350:00000000000000000000000013230000
#015350:00000000000000000000000000000013
#016320:00230000
#016381:13
#0163b1:00230000
#017351:00000000132300000000000000000000
#017381:00000000000000132300000000000000
#017351:00000000000000000000132300000000
#017381:00000000000000000000000000132300
#018351:13230000000000000000000000000000
#018381:00000013230000000000000000000000
#019381:00130000
#019351:00000000002600000000000000000000
#019351:00000000000000132600000000000000
#019351:00000000000000000000162600000000
#019351:00000000000000000000000000162600
#020351:16260000000000000000000000000000
#020351:00000016260000000000000000000000
#025321:13230000
#025371:0053000000000000
#025360:00142400
#0253a0:0000005400000000
#0273b0:13230000
#027360:0053000000000000
#027361:00142400
#027321:0000005400000000
#0283b1:0000001300230000
#028381:0053
#028350:0000001300230000
#028320:0053
#029320:13230000
#029370:0053000000000000
#0293a1:00142400
#029351:0000005400000000
#0303b1:13230000000000000000000000000000
#030320:13230000000000000000000000000000
#030350:00001323000000000000000000000000
#030380:00000000132300000000000000000000
#0303b0:0000001300000000
#030340:0054
#030380:0000000000260000
#030321:0000001300260000
#030381:0054
#030381:0000000000000013
#031381:23
#031351:0000000000000013
#032321:23
#033381:16260000
#033361:0053000000000000
#033320:00162600
#033370:0000005300000000
#033381:0013
#0333b1:0000000000230000
#033381:0000000000001326
#035321:16260000
#035371:0053000000000000
#035380:00162600
#035360:0000005300000000
#035351:0013
#035321:0000000000230000
#035351:00000013
#035321:0000000000000026
#038321:13230000000000000000000000000000
#0383b0:13230000000000000000000000000000
#038380:00001323000000000000000000000000
#038350:00000000132300000000000000000000
#038320:0000001300260000
#038380:0054
#0383b1:0000001300000000
#038341:0054
#038381:0000000000260000
#038381:0000000000000013
#0393b1:23
#040381:0013000000000000
#0403b1:00230000
#040321:0000001323000000
#043381:13
#0433b1:0023000000000000
#043351:0000000000000013
#044321:23
#044321:00000000000000000000001300000000
#044361:00000000000000000000000000230000
#045371:00000013000000000000000000000000
#0453b1:0000002300000000
#0463b1:00000000000000000000001300000000
#046371:00000000000000000000000000230000
#047361:00000013000000000000000000000000
#047321:0000002300000000
#0473b1:00000000000000000000000000130000
#047321:0000000000000000000000000000000000000000000000000000000000560000
#0483b1:23
#047320:00000000000000000000000000130000
#047380:0000000000000000000000000000000000000000000000000000000000560000
#048320:23
#048350:00000000000000000000001300230000
#050380:00000000000000000000001300230000
#051350:0013230000000000
#051380:00000000001600260000000000000000
#051321:00000000001600260000000000000000
