This file was generated by Ched 2.7.0.0.
#TITLE ""
#ARTIST ""
#DESIGNER ""
#DIFFICULTY 0
#PLAYLEVEL
#SONGID ""
#WAVE ""
#WAVEOFFSET 0
#JACKET ""
#REQUEST "ticks_per_beat 480"
#00002: 4
#BPM01: 124
#00008: 01
#TIL00: ""
#HISPEED 00
#MEASUREHS 00
#00118:00140000
#00114:00000014
#00218:00140000
#00214:00000014
#0031a:00140000
#00312:00000014
#0041a:00140000
#00412:00000014
#0051a:1414
#00514:00140000
#00612:1414
#00618:00140000
#0071a:1414
#00714:00140014
#0081a:14
#00912:1414
#00918:00140014
#00910:41
#0111a:1414
#01114:00140014
#01312:14
#01318:00140000
#0141a:14
#01414:00140000
#01512:14
#01518:00140000
#01514:0014
#0151a:00000014
#01618:0014
#01614:00000014
#01610:41
#0171a:14
#01714:00140000
#01718:0014
#01712:00000014
#0171f:11
#01818:14
#01814:00140000
#0181a:0014
#01912:14
#01918:00140000
#01914:0014
#0191a:00000014
#02014:14
#02018:00140000
#02012:0014
#02118:14141400
#02214:14141400
#0231a:14
#02314:00140000
#02318:0014
#02312:00000014
#0241a:14
#02512:2414
#02518:00240014
#0251f:21
#02614:14140000
#02618:0014001400000000
#02610:41
#02714:2414
#0271a:00240014
#02918:26001414
#02914:0000000000140000
#02912:00260000
#0311a:14140000
#03114:00001414
#03218:14
#03314:0014
#03318:24240014
#03312:24240000
#03310:41
#03414:14140000
#03418:0014001400000000
#03518:0014
#03514:24240014
#0351a:24240000
#03618:14140000
#03614:0014001400000000
#03718:00001414
#03714:0000000000140014
#03712:24240000
#0371a:24240000
#03818:14
#0381a:0034340000000000
#03914:14140000
#0391a:00001414
#03910:41
#04012:14
#04114:00001414
#04118:0000000000140014
#04112:24240000
#0411a:24240000
#04214:14
#04212:0034340000000000
#0431a:14140000
#04314:00001414
#0441a:14
#04414:0000140000140000
#04418:00001414
#04512:14
#04518:00140000
#04510:41
#04618:0000140000140000
#04614:00001414
#0471a:14
#04714:00140000
#04812:14
#04818:0000140000140000
#04814:00001414
#0491a:14
#04914:00140000
#05012:00140000
#05018:00001414
#05014:0000000000140000
#02814:14
#02812:0034341400000000
#03014:14
#03012:0034340000000000
#05119:00000034
#0085a:54
#02158:0014
#02254:0014
#0245a:54
#03258:54
#03858:64
#0385a:0000000000140000
#04052:64
#04254:54
#04252:0000000000140000
#02854:54
#02852:0000005400000000
#03054:54
#03052:0000000000140000
#0083a0:14
#008380:00000024
#010320:14342400
#0123a0:14342400
#013340:00001424
#014380:00001424
#016320:14240000
#0243a0:14
#024380:0024
#028340:1400000000240000
#028320:0034343400000000
#030340:14
#030320:0034343400240000
#032380:14
#0323a0:0024
#038380:14
#0383a0:0034343400240000
#040320:14
#040340:0024
#042340:14
#042320:0034343400240000
#045340:0014
#045320:00000034
#046340:24
#047380:00001424
#049380:0014
#0493a0:00000034
#050380:24
#051340:14003400003400002400000000000000
#051380:0000000000140000
#051390:00000034
#0513a0:0000000000000024
