This file was generated by Ched 2.7.0.0.
#TITLE ""
#ARTIST ""
#DESIGNER ""
#DIFFICULTY 0
#PLAYLEVEL
#SONGID ""
#WAVE ""
#WAVEOFFSET 0
#JACKET ""
#REQUEST "ticks_per_beat 480"
#00002: 4
#BPM01: 172
#BPM02: 180
#BPM03: 160
#00008: 01
#04908: 00010000
#04008: 02
#08308: 0002
#04708: 00030000
#TIL00: "47'960:0.9, 47'1440:0.8, 48'0:0.7, 48'360:0.65, 48'780:0.6, 48'1440:0.5, 49'480:1, 5'1290:1, 5'1285:10000"
#VOLUME: ""
#HISPEED 00
#MEASUREHS 00
#00018:0012001200220000
#00012:0000120000240000
#0001a:2200000012000024
#00014:0012001200000000
#00016:2200120012000012
#0001c:0000000000220000
#0041a:1414141424240000
#00415:0013001300000013
#00418:00120000001200000000000000000000
#0041b:0000000000001313
#00412:13000000130000000000002c00000000
#00416:00000000000000000024000000000000
#00112:0052002212000000
#00113:0000000000000012
#00115:00000000000000000000000000000012
#0011c:00001200000012000000000000120000
#0011a:00000000000000000000001200000000
#00116:0000122200001200
#00119:00000012000000000000000000000000
#00118:00000000000000000012000000000000
#00114:0000000000120000
#00219:12
#00214:00001200000000000000000000000012
#00218:00000000120000000000120000120000
#0021a:00000000000000120000000022001200
#0021c:0000002212000000
#00216:00000012000000000012001200000000
#00217:00120000000000000000000000000000
#00316:12000012000000000000000000000000
#00314:00120000000012000000000000000000
#00318:000000220000120000000000001300000013000000000000
#00312:0000000000000000000000000000001200000000001200002c000000000013002c000000000013002c00000000000000
#00315:000000000000001300130000
#0051b:13131300
#00518:00130013001300130000000000000000
#00512:130000000000000000000000000000001300000000000000000000000000000013000000000000000000007c0000000000000000000000000000000000000000
#00515:0013001300000000
#0091a:00120000120000000000000000000000
#0091c:0012000000000000
#00918:00000012000012001200000000000000
#00916:00000000001200001200000000000000
#00914:00000000000000120000000000000000
#00912:00000000000000000000002222000000
#00915:00000000000000000000002222000000
#0211c:00001222
#02112:0000000000120000
#02116:0012001200000000
#02117:00220012002200120000000000000000
#02118:22220000
#0341b:13001313000000000000130000000000
#03412:13000000000013130000130000001300
#03418:00001313130000001300000013000000
#03415:00000000130013131300000013001300
#03512:00001300000000000000230000000013
#0351b:0053130000231300
#03518:00005300130000000000230000130000
#03515:00000013000000000000230000001300
#03912:1313131313132c00
#03915:00130013001300130013001300000000
#03918:26262600
#04019:0012001200000000
#04016:00121222
#0401c:2212
#04012:0000000000122200
#04018:2200000000120000
#04015:0000000000000012
#04014:22
#0401a:00000022
#04010:41
#04315:0000000000130000
#04312:00000000000000000000001300000000
#0431a:00000000000000000000000000120000
#04318:000013000000130000001300000013000000130000001300000000130000000000000000000000000000120000000000
#04316:00000000000000000000000000000012
#0431b:231313131313130000000000
#0431c:00000022
#02515:0015001313000000
#02518:1313
#0251b:13
#0251a:00001400000000000000002200220000
#02512:0000171300000000
#02519:00150000
#0251c:0000000000222222
#03715:0016131613000000
#0371b:1313001313000000
#03712:1613131313000000
#03718:13161300
#03812:1313132616161313
#03815:00130013000000000000000000130013
#0381b:0000001313130000
#03818:26001600160000130013000026001600
#04917:0000001200000000
#04916:0000540000120000
#04915:0000000000000012
#0491c:0012
#0491b:00000012
#04919:0012
#04918:00000012
#0491a:00120000
#0491f:00110000
#0441b:12
#04419:00120000000000000000000000000012
#04417:0012000000000012
#04415:00000012000000000000000000120000
#0441a:00120000
#04418:00000000001200000000001200000000
#04416:0000001200120000
#04414:00000000000000120012000000000000
#04413:00000012
#04412:0022
#04514:12
#04516:000000120000000000000000000000000000000000000000000000000000000000000000000000001200000000000000
#04518:000000120000000000000000000000001200000000000000
#0451a:00000012000000001200000000000000
#0451c:001200
#04512:0000002c002c002c002c002c
#0581c:0012120000000000
#0581a:00000012000000000000000000000000
#05816:24141400
#0581b:2300000000131313
#05818:00000000000000000000001300130000
#05812:2300001212000000
#05814:00000000000000120000000000000000
#05815:0000000000131313
#0581f:21
#05912:0013132200000013
#05915:00000013000000000000000000000013
#05918:0000130000000013
#0591b:00000000000000000000000000000013
#05914:0000002200000000
#0591a:0000002200000000
#0591c:0000002200000000
#05910:00410000
#0601b:0013130000001300
#06018:13000013000013001600130013001300
#06015:0013131313130013
#06012:13000013000000001300000016000000
#0611c:1212120000222222
#06116:00130013000000000000000000000000
#06119:1212120000000000
#0611a:00000000000000000000002200220000
#06212:13131300
#06215:00130000000000130000130000001300
#0621b:13000013001300001300000013000000
#06218:0013131300131300
#06318:00000013000023001300230000005300
#06312:0053160000001313
#06315:0013000013000053
#0631b:0013002300231313
#06718:5313130000001313
#06715:53000013000000000000000000000013
#0671b:00005300130000000000000000130000
#06712:0053002200000000
#06714:0000002200000000
#0671a:0000002200000000
#0671c:0000002200000000
#06818:16000013000000130000000000005300
#06815:0013000013000053
#06812:1300160000000013
#0681b:0000131300000053
#07015:00000000000013130000130000001300
#07012:13161313
#0701b:1300130000130013
#07018:00001313000000001600000013001300
#0741b:2313132313132313
#07418:00000013000000000013000000000013
#07415:00000013000000000013000000000013
#07412:2300002300002300
#07410:41
#0751b:1323131323002300
#07518:00000000001300000013001300000000
#07515:00000000001300000000130000000000
#07512:0023000023002300
#0111b:1300001300000000
#01118:00001300000000000000005400000054
#01115:0000000000000000130000000000000000000054000000000000005400000000
#0111a:00002454
#01112:00002424
#01119:0000000000000000000000000000000000000000000000540000000000000054
#01117:0000000000000000000000000000000000000000005400000000000000540000
#01116:0000000000540054
#01114:00000000000000000054000000540000
#01113:0000000000000000000000000000000000540000000000000054000000000000
#01212:2414000014140000
#0121a:6414000014140000
#01312:1414000014140000
#0131a:1414000014140000
#0141a:1414000014140000
#01412:1414000014140000
#0161a:1414000014140000
#01612:1414000014140000
#01712:12000012
#01714:0012000000001200
#01716:12120000
#01718:0012000000000000
#0171a:00000014
#01812:00140000000000000000000000000000
#01813:00000014000000000000000000002400
#01814:00000000001400000000000024000000
#01815:00000000000000140000240000000000
#01816:52000000000000002414000000000000
#01817:00000000000024000000001400000000
#01818:52000000240000000000000000140000
#01819:00002400000000000000000000000014
#0181a:24
#0191a:00140000000000000000000000000000
#01919:00000014000000000000000000002400
#01918:00000000001400000000000024000000
#01917:00000000000000140000240000000000
#01916:00000000000000002414000000000000
#01915:00000000000024000000001400000000
#01914:00000000240000000000000000140000
#01913:00002400000000000000000000000014
#01912:24
#02012:0014000000000000
#02016:00000012000000120000001200000000
#02013:0000001300000000
#02014:0000000000120000
#02015:0000000000000012
#02017:00000000000000000000000000220012
#0201a:24232200
#02018:00220000002200000022000000000000
#02019:00000022
#02212:1400130000131300
#02218:00001313000000001300000013001300
#02215:0000130013130000
#0221b:00000000000013130000130013001300
#0221a:24
#02210:41
#02312:00001300000013000000000000130000
#02315:00005313000013000000530013000013
#02318:00005300130000000000531300001300
#0231b:0000130000130000
#02415:00001300000000130000130000000013
#02418:00000013000013000000001300001300
#03318:0000001313000000
#03315:1313
#03312:1314150000222222
#03316:0015000000000000
#03317:00170000
#0331b:0000001300000000
#03314:00000000000000000000002200220000
#0301a:14
#03015:00001313000000001300000013001300
#0301b:0000130000131300
#03018:0000130013130000
#03012:24000000000013130000130013001300
#03010:41
#0311b:00001300000013000000000000130000
#03118:00005313000013000000530013000013
#03115:00005300130000000000531300001300
#03112:0000130000130000
#03218:00001300000000130000130000000013
#03215:00000013000013000000001300001300
#0361b:1300130013001313
#03618:00130013000013000013001300000000
#03615:00001300001300130000130000000000
#03612:0000130013001313
#04118:12122200
#04115:0012000000000000
#04112:00120000
#0411c:0000001222000000
#04116:0000001200001200
#04119:0000000000120012
#04114:0022
#0421c:1200000000000012
#04212:0012220000001200
#04216:1200220000000012
#04218:0012000012001200
#04215:0000001200120000
#0421a:00220000
#04618:121212
#0461a:001200120012
#04616:000000120012
#04614:000012
#0461c:001200
#04612:002c002c002c002c002c002c
#04712:00000000000000002c0000000000000012000000000000001c00001c00001c00001c00001c00000000001c00000000001c00000000001c00000000000000001c00000000000000001c00000000000000000000001c0000000000000000000000
#04718:12
#04714:12
#04716:001200000000
#04812:1c00000000001c0000000000001c000000000000000000001c00000000000000
#02612:1414140000001400
#02618:00140014000000540000000000000054
#02614:00000000005400001400140000540000
#0261a:00000000000000005414001400000000
#02616:0000005400000054
#02712:1414140000001400
#02718:00140000000000540000000000000054
#02716:00000014000054001400000000005400
#02714:00000000005400000000140000540000
#0271a:54000000000000005414001400000000
#05014:0012000000120000
#05017:12
#0501a:12
#05013:0000001200000000
#05015:0000000012000012
#05018:0012
#05019:00120012
#05016:00120012
#0511a:12
#05117:1200001200000000
#05116:0012000000120000
#05119:0012
#0511c:0012
#0511b:00120012
#05118:00120012
#05115:0000000000000012
#0521a:12
#05217:12
#05214:0012000000120022
#05213:0000001200000000
#05215:0012
#05218:0012
#05219:00120012
#05216:00120012
#05212:00000000000000000000000000000022
#0531b:0000130000130000
#05318:00000000001300000013001300000013
#05315:0000001313001313
#05312:00220000000000130000000000130000
#05314:2222000000000000
#0541b:1300001300001300
#05418:00130000001300130000001300130000
#05415:0013130013130013
#05412:00000013000000000013000000000013
#05515:1300230013130000
#05518:00130013000000000000230000000000
#0551b:0013000000230000
#05512:0000230013130000
#05618:1313000000130000
#0561b:1313000000230000
#05615:0023000000130000
#05612:002300000023001c
#05617:0000000000000000000000000000000000000000000000000000000000000017
#05616:0000000000000000000000000000000000000000000000000000000000180000
#05613:0000000000000000000000000000001b
#05718:0016000000000000000000000000620000000000620000000000000000000000
#0571b:0000000000000013000000000000000000000000000000620000000000000000
#05717:0000000000001700000000000062000000000062000000000000000000000000
#0571a:0000000000140000000000000000000062000000000062000000000000000000
#05719:0000001500000000000000000000006200000000006200000000000000000000
#05716:00001800000062000062000000000000
#05715:0000190000000000000000620000000000620000000000000000000000000000
#05714:1a000000006200002200000000000000
#05712:00220024
#0571c:00000062
#05713:0000000000000000006200000000000000000000000000000000000000000000
#0641b:1313000013130000
#06418:13001300130013000013001313001300
#06415:00130013130013000013001300130013
#06412:00000000001300130000000000130013
#06515:00000000000000001300000000000000000000001300000000000000130000000000000000000000005300000000000000000000000000000000000000000000
#0651b:1313130013000000
#06518:00000000130000000000000013000000000000000000000013000000000000000000000000000053000000540054005400000000000000000000000000000000
#06512:0000131354000000
#06514:00000000000000000000000000000000000000000000000000000000000000000054005400540000000000000000000000000000000000000000000000000000
#06516:0000000000000000000000000000000000530054545400000000000000000000
#06513:00000000000000000053000000000000
#0651a:00000000000000000000005354000000
#06517:0000000000000000000000000000000000000000000000530000000000000000
#0661b:0013005300002323
#06612:0053001300002323
#06615:0053005323002323
#06613:0000000000230000
#06618:0053005323002323
#0661a:0000000000230000
#06616:0000000000240000
#0691b:1313000000000000
#06918:1353
#06912:1313000000000053
#06915:0013000000000053
#0691c:0000000000222222
#0691a:00000000000000000000002200220000
#0711b:000000000000000000000000000000000000000000000000000000000000000000000000000000000000000000000000000000000000000000000000000000000000000000000000000000000000000000000000000000000000000000000000000000000000000000000000000000000000000000000000000000000000000000000000000000000000000000000000000000000000000000000000000000000000000000000000000000000000000000000000000000000000000000000000000000000000000000000000000000000000000000000000000000000000000000000000000000000000000000000000230000000000000000000000000000000000000000000000000000000000000000000000000000000000000000000000000000000000000000000000000000000000000000000000000000000000000000000000000000000000000000000000000000000000000000000000000000000000000000000000000000000000000000000000000000000000000000000000000000000000000000000000000000000000000000000000000000000000000000000000000000000000000000000000000000000000000000000000000000000000000000000000000000000000000000000000000000000000000000000000230000000000000000000000000000000000000000000000000000000000000000000000000000000000000000000000000000000000000000000000000000000000000000000000000000000000000000000000000000000000000000000000000000000000000000000000000000000000000000000000000000000000000000000000000000000000000000000000000000000000000000000000000000000000000000000000000000000000000000000000000000000000000000000000000000000000000000000000000000000000000000000000000000000000000000000000000000000000000000000000000000000000000000000000000000000000000000000000000000000000000000000000000000000000000000000000000000000000000000000000000000000000000000000000000000000000000000000000000000000000000000000000000000000000000000000000000000000000000000000000000000000000000000000000000000000000000000000000000000000000000000000000000000000000000000000000000000000000000000000000000000000000000000000000000000000000000000000000000000000000000000000000000000000000000000000000000000000000000000007300008300000000000000000000000000000000000000000000000000000000000000000000000000000000000000000000000000000000000000000000000000000000000000000000000000000000000000000000000000000000000000000000000000000000000000000000000000000000000000000000000000000000000000000000000000000000000000000000000000000000000000000000000000000000000000000000000000000000000000000000000000000000000000000000000000000000000000000000000000000000000000000000000000000000000000000000000000000000000000000000000000000000000000000000000000000000000000000000000000000000000000000000000000000000000000000000000000000000000000000000000000000000000000000000000000000000000000000000000000000000000000000000000000000000000000000000000000000000000000000000000000000000000000000000000000000000000000000000000000000000000000000000000000000000000000000000000000000000000000000000000000000000000000000000000000000000000000000000000000000000000000000000000000000000000000000000000000000000000000000000130000000000000000000000000000000000000000000000000000000000000000000000000000000000000000000000000000000000000000000000000000000000000000000000000000000000000000000000000000000000000000000000000000000000000000000000000000000000000000000000000000000000000000000000000000000000000000000000000000000000000000000000000000000000000000000000000000000000000000000000000000000000000000000000000000000000000000000000000000000000000000000000000000000000000000000000000000000000000000000000000000000000000000000000000000000000000000000000000000000000000000000000000000000000000000000000000000000000000000000000000000000000000000000000000000000000000000000000000000000000000000000000000000000000000000000000000000000000000000000000000000000000000000000000000000000000000000000000000000000000000000000000000000000000000000000000000000000000000000000000000000000000000000000000000000000000000000000000000000000000000000000000000000000000000000000000000000000000000000000000
#07112:00000013
#07115:0000000000000013
#07118:0000000000002300000000000083000000000073000000000000000013000000
#07113:0000000000000000000000000000000000000000000000000000000000000000000000000000000000000000000000000000000000000000000000120000000000000000000000120000000000000000000000000000000000000000000000000000000000000000000000000000000000000000000000000000000000000000
#07114:00000000000000000000000000000000000000000000000000000000820000720000820000720000000000000000000000000000000000000000000000000000
#0721b:13131300
#07218:00130013001300130000130000001300
#07215:00001300000013000013001300130013
#07212:13001313
#07312:1300131313001313
#0731b:1313130013131300
#07318:00130013000013000013001300001300
#07315:00001300001300130000130000130013
#07612:2313132313132313
#07615:00000013000000000013000000000013
#07618:26000013000026000013000026000013
#07712:1323131323002300
#07715:00000000001300000013001300000000
#07718:00002600001300002600130026000000
#0781b:0013130000000013
#07818:26000013000026001300130026000013
#07815:00001300130000000013000000001300
#07812:2600002613132600
#0791b:1323
#07918:0026131323000000
#07915:13000000001300002300000000000000
#07912:0026131323000000
#0831c:00000000001200120000000000000000
#0831a:00120000000012000000000000000000
#08318:120000000000000000120000000000000000000000000000260000005600000026000000560000002600000056000000
#08316:0022120000000000
#08312:000000000000235323532353
#08315:000000005353
#00612:6c6c6c6c6c0012001200120000001300
#00616:0000001212120000
#00618:00000000000000120012000000001300
#0061c:00000000000000120012000000000000
#0061b:00000013
#00615:00000013
#00610:41
#0071b:1313000013130000
#00715:13000000130000130000000013000013
#00718:00000013000000001300001300000000
#00712:0000131300001313
#00818:13000000000000000000000000000000005300000000000063000000000000006300000000000000630000000000005363000000000000006353000000000000
#0081b:13000000000000000000000000000000000000000000000000630000000000630000000000000000006300000000006300000000000000000063000000000000
#00815:00000000000000002300000000000000530000000000006300000000000000000063000000000063000000000000000053630000000000635300000000000000
#00812:00000000000000000000000000000053000000000000000000000000000000000000000000000000000000000000000000530000000000530000000000000000
#08016:0012001200220000
#0801c:00120000
#08014:2212
#0801a:0012001200240000
#08018:2200120012000012
#08012:0000000000220024
#0811c:0052002212000000
#0811b:0000000000000012
#08119:00000000000000000000000000000012
#08112:00001200000012000000000000120000
#08114:00000000000000000000001200000000
#08118:0000122200001200
#08115:00000012000000000000000000000000
#08116:00000000000000000012000000000000
#0811a:0000000000120000
#08215:12
#0821a:00001200000000000000000000000012
#08216:00000000120000000000120000120000
#08214:00000000000000120000000022001200
#08212:0000002212000000
#08218:00000012000000000012001200000000
#08217:00120000000000000000000000000000
#01516:2466000000000000006600000000000000660000000000000066000000000000
#0151a:24
#01514:00660000256600000066000000660000
#01519:00250000
#01512:0000006600000000000000660000000026000066000000002600006600000000
#01518:00002626
#08518:265626562600000000260000
#08512:235323532300000000260000
#08515:535353000000
#01014:22
#01012:22000022
#0101a:00220000
#01016:00220000
#01018:0022
#0101b:0022
#0101c:00000022
#08412:235323532353235323532353
#08418:265626562656265626562656
#08415:535353535353
#0281a:54
#02812:0053005300530053
#02815:0053005300530053
#0281b:00535353
#02818:00535353
#02912:0053005354000000
#02914:00000000000000000000000000000000000000000000000000000000000000000054005400540000000000000000000000000000000000000000000000000000
#02916:0000000000000000000000000000000000530054545400000000000000000000
#02913:00000000000000000053000000000000
#02918:53000000000000000000000000000000530000000000000000000000000000005300000000000053000000540054005400000000000000000000000000000000
#02915:00000000000000005300000000000000000000000000000053000000000000000000000000000000005300000000000000000000000000000000000000000000
#0291a:00000000000000000000005354000000
#02917:0000000000000000000000000000000000000000000000530000000000000000
#0291b:53535300
#0215c:00005242
#02152:0000000000220000
#0375b:00005313
#03755:00006313
#03758:00165313
#03752:16006313
#0585b:0000000000000053
#06058:0016
#06052:00000016
#0615c:00520000
#06159:00520000
#06858:16
#06852:00160000
#07055:0000000000000053
#0705b:0000000000000013
#07058:0000000000000013
#00052:0000000000140000
#0005a:0000000000000014
#0045a:0000000044440000
#00456:00000000000000000034000000000000
#00452:00000000000000000000003c00000000
#01556:34
#01554:00350000
#01552:00003636
#0155a:34
#01559:00350000
#01558:00003636
#03958:16161600
#03952:0000001c
#03558:0000000000430000
#03555:0000000000330000
#0355b:0000000000430000
#03552:0000000000330000
#08558:00000046
#08552:00000036
#06655:00001313
#06653:0000000000130000
#06652:00000013
#06658:00001313
#06656:0000000000140000
#0665a:0000000000130000
#0665b:00000013
#0795b:0000000000130000
#07958:0016000000130000
#07955:0000000000130000
#07952:0000000000130000
#0095a:00000012
#0095c:00000012
#00958:0052
#00956:0052
#01252:1414000014140000
#0125a:1414000014140000
#01352:1414000014140000
#0135a:1414000014140000
#0145a:1414000014140000
#01452:1414000014140000
#0165a:1414000014140000
#01652:1414000014140000
#01755:0000000000110000
#01758:0000000000110000
#0175b:0000000000110000
#01752:00000052
#01754:00000052
#0225a:14
#02252:14
#02258:0000000000000053
#0225b:0000000000000053
#02352:0000006300000000
#02355:0000006300000000
#0255b:13
#02558:13
#0255a:0014000000000000
#02555:0015000000000000
#02559:00150000
#02552:00170000
#0305a:14
#03052:1400000000000063
#03055:0000000000000063
#0315b:0000005300000000
#03158:0000005300000000
#03352:1314150000000000
#03355:13
#03356:0015000000000000
#03357:00170000
#04752:00000000000000005c5c5c5c5c005c005c005c00005c00005c0000005c000000
#04852:5c00000000005c0000000000005c000000000000000000005c00000000000000
#05059:00120000
#05056:00120000
#05158:00120000
#0515b:00120000
#05259:00120000
#05256:00120000
#0575c:00000012
#05752:00000014
#05754:5a
#05755:00590000000000000000000000000000
#05756:0058000000000000
#05757:00000057000000000000000000000000
#05758:0026000000000000000000000000000000000000000000000000000000000000
#05759:0000002500000000000000000000000000000000000000000000000000000000
#0575a:0000000000240000000000000000000000000000000000000000000000000000
#0575b:0000000000000023000000000000000000000000000000000000000000000000
#05652:000000000000005c
#05653:0000000000000000000000000000005b
#05656:0000000000000000000000000000000000000000000000000000000000280000
#05657:0000000000000000000000000000000000000000000000000000000000000027
#05956:0000000000120000
#05958:0000000000120000
#0595a:0000005200120000
#05954:0000005200120000
#0595c:0000005200000000
#05952:0000005200000000
#0635b:0000001300130000
#06358:0000001300130000
#06752:0000005200000000
#06754:0000005200120000
#0675a:0000005200120000
#0675c:0000005200000000
#06756:0000000000120000
#06758:0000000000120000
#0805a:0000000000140000
#08052:0000000000000014
#00652:1c1c1c1c1c0000000000000000000000
#07452:1300001300001300
#07552:0013000013001300
#0755b:00000013
#07658:1600001600001600
#07758:0016000016001600
#07752:00000013
#07852:16000016
#07858:0000001600000000
#0295a:00000014
#0655a:00000014
#07154:0000000000000000000000000000520000520000000000000000000000000000
#07153:0000000000000000000000000000000000000000000000000000000000000000000000000000000000000000000000000000000000000000000000220000000000000000000000220000000000000000000000000000000000000000000000000000000000000000000000000000000000000000000000000000000000000000
#07158:0000000000000000000000000053000000000000000000000000000000000000
#0715b:000000000000000000000000000000000000000000000000000000000000000000000000000000000000000000000000000000000000000000000000000000000000000000000000000000000000000000000000000000000000000000000000000000000000000000000000000000000000000000000000000000000000000000000000000000000000000000000000000000000000000000000000000000000000000000000000000000000000000000000000000000000000000000000000000000000000000000000000000000000000000000000000000000000000000000000000000000000000000000000000000000000000000000000000000000000000000000000000000000000000000000000000000000000000000000000000000000000000000000000000000000000000000000000000000000000000000000000000000000000000000000000000000000000000000000000000000000000000000000000000000000000000000000000000000000000000000000000000000000000000000000000000000000000000000000000000000000000000000000000000000000000000000000000000000000000000000000000000000000000000000000000000000000000000000000000000000000000000000000000000000000000000000000000000000000000000000000000000000000000000000000000000000000000000000000000000000000000000000000000000000000000000000000000000000000000000000000000000000000000000000000000000000000000000000000000000000000000000000000000000000000000000000000000000000000000000000000000000000000000000000000000000000000000000000000000000000000000000000000000000000000000000000000000000000000000000000000000000000000000000000000000000000000000000000000000000000000000000000000000000000000000000000000000000000000000000000000000000000000000000000000000000000000000000000000000000000000000000000000000000000000000000000000000000000000000000000000000000000000000000000000000000000000000000000000000000000000000000000000000000000000000000000000000000000000000000000000000000000000000000000000000000000000000000000000000000000000000000000000000000000000000000000000000000000000000000000000000000000000000000000000000000000000000000000000000000000000000000000000000000002300000000000000000000000000000000000000000000000000000000000000000000000000000000000000000000000000000000000000000000000000000000000000000000000000000000000000000000000000000000000000000000000000000000000000000000000000000000000000000000000000000000000000000000000000000000000000000000000000000000000000000000000000000000000000000000000000000000000000000000000000000000000000000000000000000000000000000000000000000000000000000000000000000000000000000000000000000000000000000000000000000000000000000000000000000000000000000000000000000000000000000000000000000000000000000000000000000000000000000000000000000000000000000000000000000000000000000000000000000000000000000000000000000000000000000000000000000000000000000000000000000000000000000000000000000000000000000000000000000000000000000000000000000000000000000000000000000000000000000000000000000000000000000000000000000000000000000000000000000000000000000000000000000000000000000000000000000000000000000000000000000000000000000000000000000000000000000000000000000000000000000000000000000000000000000000000000000000000000000000000000000000000000000000000000000000000000000000000000000000000000000000000000000000000000000000000000000000000000000000000000000000000000000000000000000000000000000000000000000000000000000000000000000000000000000000000000000000000000000000000000000000000000000000000000000000000000000000000000000000000000000000000000000000000000000000000000000000000000000000000000000000000000000000000000000000000000000000000000000000000000000000000000000000000000000000000000000000000000000000000000000000000000000000000000000000000000000000000000000000000000000000000000000000000000000000000000000000000000000000000000000000000000000000000000000000000000000000000000000000000000000000000000000000000000000000000000000000000000000000000000000000000000000000000000000000000000000000000000000000000000000000000000000000000000000000000000000000000000000000
#000320:0000000000000012
#001320:0022000000000000
#005320:000000000000000000000000000000000000000000000000000000000000000000000000000000001c00002c0000000000000000000000000000000000000000
#008320:00000000000000001300000000000023000000000000000000000000000000000000000000000000000000000000000000000000000000000000000000000000
#008351:00000000000000001300000000000000000000000000002300000000000000000000000000000000000000000000000000000000000000000000000000000000
#008380:00000000000000000000000000000000001300000000000000000000000000000000000000000000000000000000002300000000000000000000000000000000
#0083b1:00000000000000000000000000000000000000000000000000130000000000230000000000000000000000000000000000000000000000000000000000000000
#008351:00000000000000000000000000000000000000000000000000000000000000000013000000000023000000000000000000000000000000000000000000000000
#0083b1:00000000000000000000000000000000000000000000000000000000000000000000000000000000001300000000002300000000000000000000000000000000
#008321:00000000000000000000000000000000000000000000000000000000000000000000000000000000000000000000000000130000000000230000000000000000
#008350:00000000000000000000000000000000000000000000000000000000000000000000000000000000000000000000000000130000000000230000000000000000
#008380:00000000000000000000000000000000000000000000000000000000000000000000000000000000000000000000000000000000000000000013000000000000
#009380:23
#0083b1:00000000000000000000000000000000000000000000000000000000000000000000000000000000000000000000000000000000000000000013000000000000
#0093b1:23
#009361:0012
#0093a1:00000000000000000000003222000000
#009380:0012
#0093c0:00000000000000000000003222000000
#010320:1222000000000000
#010341:1222000000000000
#010382:1222000000000000
#0103c3:1222000000000000
#0103c1:0000122200000000
#0103a2:0000122200000000
#010363:0000122200000000
#010320:0000122200000000
#0103b2:0000000012220000
#010383:0000000012220000
#010360:0000000012220000
#010331:0000000012220000
#010323:0000000000001222
#010350:0000000000001222
#010391:0000000000001222
#0103c2:0000000000001222
#011320:1300002300000000
#0123a0:0000122200000000
#012371:0000122200000000
#012342:0000122200000000
#012381:0000000000001222
#0123c2:0000000000001222
#012360:0000000000001222
#013362:0000122200000000
#013320:0000122200000000
#013381:0000122200000000
#013320:0000000000001222
#0133c1:0000000000001222
#013382:0000000000001222
#014321:0000122200000000
#0143c2:0000122200000000
#014360:0000122200000000
#0143c2:0000000000001222
#014320:0000000000001222
#014371:0000000000001222
#0163c0:0000122200000000
#016321:0000122200000000
#016362:0000122200000000
#0163a3:0000122200000000
#016321:0000000000001222
#0163c2:0000000000001222
#016383:0000000000001222
#016340:0000000000001222
#0173a2:00130000
#0173b2:0000000000210000
#017373:0000001300000000
#017383:0000000000210000
#017340:0013
#017350:0000000000210000
#017323:00000012
#018363:22
#017340:00000012
#018380:22
#0213c0:00001222
#021320:0000000000520000
#0223b0:0000000000000013
#023380:0023000000000000
#022383:0000000000000013
#023353:0023000000000000
#023323:0000001300000000
#023353:0000000000230000
#023350:0000001300000000
#023380:0000000000230000
#0243b0:1323000000000000
#024383:1323000000000000
#024323:0000132300000000
#024350:0000132300000000
#0243b0:0000000013230000
#024383:0000000013230000
#024323:0000000000001323
#024350:0000000000001323
#028320:1323000000000000
#028353:00132300000000000000000000000000
#028382:0013230000000000
#0283b3:00000013230000000000000000000000
#028320:0000132300000000
#028353:00000000001323000000000000000000
#028382:0000001323000000
#0283b3:00000000000000132300000000000000
#028320:0000000013230000
#028353:00000000000000000013230000000000
#028382:0000000000132300
#0283b3:00000000000000000000001323000000
#028320:0000000000001323
#028353:00000000000000000000000000132300
#028382:0000000000000013
#029382:23
#0283b3:00000000000000000000000000000013
#0293b3:23
#029320:1323000000000000
#029353:00132300000000000000000000000000
#029382:0013230000000000
#0293b3:00000013230000000000000000000000
#029320:0000132300000000
#029353:00000000001323000000000000000000
#029382:0000001323000000
#0293b3:00000000000000132300000000000000
#030323:0000000000000013
#031353:0023000000000000
#030352:0000000000000013
#031382:0023000000000000
#0313b2:0000001300000000
#031382:0000000000230000
#031383:0000001300000000
#031353:0000000000230000
#032323:1323000000000000
#032352:1323000000000000
#0323b2:0000132300000000
#032383:0000132300000000
#032323:0000000013230000
#032352:0000000013230000
#0323b2:0000000000001323
#032383:0000000000001323
#0343b3:0000000000000013
#0353b3:0023000000000000
#034382:0000000000000013
#035382:0023000000000000
#035352:0000001300230000
#035383:0000001300230000
#0353b0:0000001300230000
#035321:0000001300230000
#0373b3:0013
#037353:00000023
#037380:0013
#037320:00000023
#037321:0013
#037381:00000023
#037352:0013
#0373b2:00000023
#040340:1222000000000000
#0403a0:0000000000001222
#041340:0000000012220000
#0413c1:0000000012220000
#0423a1:0000122200000000
#042320:0000122200000000
#047320:00000000000000001c5c5c5c5c005c005c005c00005c00005c0000005c000000
#047350:000000000000000000000000000000000000000000000000000000000000000000000000000000000000000000000000000000000000000000000000000000000000000000000000000000000000000000000000000000000000000000000000000000000000000000000056000000000000000000000056000000000000000000000056000000000000000000000056000000000000000000000000000000000000000000000056000000000000000000000000000000000000000000000056000000000000000000000000000000000000000000000056000000000000000000000000000000000000000000000000000000000000000000000000000000000000000000000000000000000000000000000000000000000000000000000000000000000000000000000000000000000000000000000000000000000000000000000000000000000000000000000000000000000000000000000000000000000000000000000000000000000000000000000000000000000000000000000000
#047360:000000000000000000000000000000000000000000000000000000000000000000000000000000000000000000000000000000000000000000000000000000000000000000000000000000000000000000000000000000000000000000000000000000000000000000000000000000000000000000000000000000000000000000000000000000000000000000000000000000000000000000000000000000000000000000000000000000000000000000000000000000000000000000000000000000000000000000000000000000000000000000000000000000000000000000000000000000000000000000000000000000000000000000000054000000000000000000000000000000000000000000000000000000000000000000000054000000000000000000000000000000000000000000000000000000000000000000000000000000000000000000000054000000000000000000000000000000000000000000000000000000000000000000000000000000000000000000000054
#048320:5c00000000005c0000000000005c000000000000000000005c00000000000000
#048360:000000000000000000000000000000000000000000000000000000000000000000000000000000000000000000000000000000000000000000000000000000000000000000000054000000000000000000000000000000000000000000000000000000000000000000000000000000000000000000000000000000000000000000000000000000000000000000000000000000000000000000000054000000000000000000000000000000000000000000000000000000000000000000000000000000000000000000000000000000000000000000000000000000000000000000000000000000000000000000000000000000000000000000000000000000000000000000000000000000000000000000000000000000000000000000000054000000000000000000000000000000000000000000000000000000000000000000000000000000000000000000000000000000000000000000000000000000000000000000000000000000000000000000000000000000000000000000000000
#049360:00240000
#056320:000000000000001c
#056360:0000000000000000000000000000000000000000000000000000000000580000
#056330:0000000000000000000000000000005b
#056370:0000000000000000000000000000000000000000000000000000000000000057
#057340:5a
#057380:0056000000000000260000000000000000000000000000000000000000000000
#057350:00590000000000000000000000000000
#057390:0000005500000000000000000000000000000000000000000000000000000000
#057360:0058000000000000
#0573a0:0000000000540000000000000000000000000000000000000000000000000000
#057370:00000057000000000000000000000000
#0573b0:0000000000000053000000000000000000000000000000000000000000000000
#0583b0:0000000000000013
#059350:0023000000000000
#0593c0:0000001200000000
#059360:0000000000220000
#059321:0000001200000000
#059381:0000000000220000
#0593a2:0000001200000000
#059342:0000000000220000
#059343:0000001200000000
#0593a3:0000000000220000
#0613c1:00120000
#061351:0022
#061392:00120000
#061322:0022
#062322:0000000000000013
#063322:0023000000000000
#063352:0000000000001323
#063381:0000000000001323
#066321:1323000000000000
#066352:1323000000000000
#066383:1323000000000000
#0663b2:0000132300000000
#066383:0000132300000000
#066351:0000132300000000
#066353:0000000000000013
#067353:23
#066321:0000000000000013
#067321:0023000000000000
#066382:0000000000000013
#067382:23
#0663b0:0000000000000013
#0673b0:0023000000000000
#0673c1:0000001200000000
#067361:0000000000220000
#067320:0000001200000000
#067380:0000000000220000
#0673a2:0000001200000000
#067342:0000000000220000
#067343:0000001200000000
#0673a3:0000000000220000
#0683b0:0000000013000023
#068382:0000000000130023
#068353:0000000000001323
#069322:0000130000000023
#069353:0000130000000023
#069380:00132300
#070353:0000000000000013
#071323:00230000
#071323:0000001c002c0000
#071382:0000000000000000000000000013000000000000000000000000000000000000
#0713b2:000000000000000000000000000000000000000000000000000000000000000000000000000000000000000000000000000000000000000000000000000000000000000000000000000000000000000000000000000000000000000000000000000000000000000000000000000000000000000000000000000000000000000000000000000000000000000000000000000000000000000000000000000000000000000000000000000000000000000000000000000000000000000000000000000000000000000000000000000000000000000000000000000000000000000000000000000000000000000000000000000000000000000000000000000000000000000000000000000000000000000000000000000000000000000000000000000000000000000000000000000000000000000000000000000000000000000000000000000000000000000000000000000000000000000000000000000000000000000000000000000000000000000000000000000000000000000000000000000000000000000000000000000000000000000000000000000000000000000000000000000000000000000000000000000000000000000000000000000000000000000000000000000000000000000000000000000000000000000000000023000000000000000000000000000000000000000000000000000000000000000000000000000000000000000000000000000000000000000000000000000000000000000000000000000000000000000000000000000000000000000000000000000000000000000000000000000000000000000000000000000000000000000000000000000000000000000000000000000000000000000000000000000000000000000000000000000000000000000000000000000000000000000000000000000000000000000000000000000000000000000000000000000000000000000000000000000000000000000000000000000000000000000000000000000000000000000000000000000000000000000000000000000000000000000000000000000000000000000000000000000000000000000000000000000000000000000000000000000000000000000000000000000000000000000000000000000000000000000000000000000000000000000000000000000000000000000000000000000000000000000000000000000000000000000000000000000000000000000000000000000000000000000000000000000000000000000000000000000000000000000000000000000000000000000000000000000000000000000000000000
#071340:00000000000000000000000000000000000000000000000000000000120000220000000000000000000000000000000000000000000000000000000000000000
#071330:0000000000000000000000000000000000000000000000000000000000000000000000000000000000000000000000000000000000000000000000520000000000000000000000000000000000000000000000000000000000000000000000000000000000000000000000000000000000000000000000000000000000000000
#0713b2:000000000000000000000000000000000000000000000000000000000000000000000000000000000000000000000000000000000000000000000000000000000000000000000000000000000000000000000000000000000000000000000000000000000000000000000000000000000000000000000000000000000000000000000000000000000000000000000000000000000000000000000000000000000000000000000000000000000000000000000000000000000000000000000000000000000000000000000000000000000000000000000000000000000000000000000000000000000000000000000000000000000000000000000000000000000000000000000000000000000000000000000000000000000000000000000000000000000000000000000000000000000000000000000000000000000000000000000000000000000000000000000000000000000000000000000000000000000000000000000000000000000000000000000000000000000000000000000000000000000000000000000000000000000000000000000000000000000000000000000000000000000000000000000000000000000000000000000000000000000000000000000000000000000000000000000000000000000000000000000000000000000000000000000000000000000000000000000000000000000000000000000000000000000000000000000000000000000000000000000000000000000000000000000000000000000000000000000000000000000000000000000000000000000000000000000000000000000000000000000000000000000000000000000000000000000000000000000000000000000000000000000000000000000000000000000000000000000000000000000000000000000000000000000000000000000000000000000000000000000000000000000000000000000000000000000000000000000000000000000000000000000000000000000000000000000000000000000000000000000000000000000000000000000000000000000000000000000000000000000000000000000000000000000000000000000000000000000000000000000000000000000000000000000000000000000000000000000000000000000000000000000000000000000000000000000000000000000000000000000000000000000000000000000000000000000000000000000000000000000000000000000000000000000000000000000000000000000000000000000000000000000000000000000000000000000000000000000000000000000000001300000000000000000000000000000000000000000000000000000000000000000000000000000000000000000000000000000000000000000000000000000000000000000000000000000000000000000000000000000000000000000000000000000000000000000000000000000000000000000000000000000000000000000000000000000000000000000000000000000000000000000000000000000000000000000000000000000000000000000000000000000000000000000000000000000000000000000000000000000000000000000000000000000000000000000000000000000000000000000000000000000000000000000000000000000000000000000000000000000000000000000000000000000000000000000000000000000000000000000000000000000000000000000000000000000000000000000000000000000000000000000000000000000000000000000000000000000000000000000000000000000000000000000000000000000000000000000000000000000000000000000000000000000000000000000000000000000000000000000000000000000000000000000000000000000000000000000000000000000000000000000000000000000000000000000000000000000000000000000000000000000000000000000000000000000000000000000000000000000000000000000000000000000000000000000000000000000000000000000000000000000000000000000000000000000000000000000000000000000000000000000000000000000000000000000000000000000000000000000000000000000000000000000000000000000000000000000000000000000000000000000000000000000000000000000000000000000000000000000000000000000000000000000000000000000000000000000000000000000000000000000000000000000000000000000000000000000000000000000000000000000000000000000000000000000000000000000000000000000000000000000000000000000000000000000000000000000000000000000000000000000000000000000000000000000000000000000000000000000000000000000000000000000000000000000000000000000000000000000000000000000000000000000000000000000000000000000000000000000000000000000000000000000000000000000000000000000000000000000000000000000000000000000000000000000000000000000000000000000000000000000000000000000000000000000000000000000000000000000000
#071382:0000000000000000000000000000000000000023000000000000000000000000
#071340:00000000000000000000000000000000000000000000000000000000000000000000120000220000000000000000000000000000000000000000000000000000
#071330:0000000000000000000000000000000000000000000000000000000000000000000000000000000000000000000000000000000000000000000000000000000000000000000000520000000000000000000000000000000000000000000000000000000000000000000000000000000000000000000000000000000000000000
#0793b3:0000000013230000
#079382:0000000013230000
#079350:0000000013230000
#079321:0000000013230000
#0803c2:0000000000000012
#0813c2:0022000000000000
#083322:000000000000132300000000
#083380:000000000000162600000000
#083351:000000000000001323000000
#083320:000000000000000013230000
#083382:000000000000000016260000
#083351:000000000000000000132300
#083320:000000000000000000001323
#083382:000000000000000000001626
#083351:000000000000000000000013
#084351:23
#084320:132300000000000000000000
#084382:162600000000000000000000
#084351:001323000000000000000000
#084320:000013230000000000000000
#084382:000016260000000000000000
#084351:000000132300000000000000
#084320:000000001323000000000000
#084382:000000001626000000000000
#084351:000000000013230000000000
#084320:000000000000132300000000
#084382:000000000000162600000000
#084351:000000000000001323000000
#084320:000000000000000013230000
#084382:000000000000000016260000
#084351:000000000000000000132300
#084320:000000000000000000001323
#084382:000000000000000000001626
#084351:000000000000000000000013
#085351:23
#085320:132300000000000000000000
#085382:162600000000000000000000
#085351:001323000000000000000000
#085320:000013230000000000000000
#085382:000016260000000000000000
#085351:000000132300000000000000
#026920:00140000
#0269a0:0024
#026920:00000014
#0279a0:24
#027920:00140000
#0279a0:0024
#027920:00000014
#0289a0:24
#057920:00120000
#0579a0:0022
#057941:0012
#0579c1:00000022
