This file was generated by Ched 2.7.0.0.
#TITLE ""
#ARTIST ""
#DESIGNER ""
#DIFFICULTY 0
#PLAYLEVEL
#SONGID ""
#WAVE ""
#WAVEOFFSET 0
#JACKET ""
#REQUEST "ticks_per_beat 480"
#00002: 4
#BPM01: 172
#BPM02: 180
#BPM03: 160
#00008: 01
#04908: 00010000
#04008: 02
#08308: 0002
#04708: 00030000
#TIL00: ""
#HISPEED 00
#MEASUREHS 00
#00518:14
#0071a:14
#00612:14
#00610:41
#01212:14
#01318:14
#01414:14
#01714:14
#01818:14
#01914:14
#02218:0016
#02212:26
#02210:41
#04914:00140000
#0491f:00110000
#05014:00140000
#05118:00140000
#05218:00140000
#00414:14
#02312:16
#02318:0016
#02612:1616
#02718:1616
#02812:16
#02818:0016
#03012:0016
#03018:26
#03010:41
#03118:16
#03112:0016
#03418:1616
#03512:1616
#03618:16
#03612:0016
#04012:14
#04018:00000014
#04010:41
#04114:0014
#0421a:00140000
#05312:00140000
#05412:00140000
#05818:0016
#05812:26
#0581f:21
#05912:16
#05918:0016
#05910:00410000
#06212:1616
#06318:1616
#06412:16
#06418:0016
#06612:0016
#06618:26
#06718:16
#06712:0016
#07018:1616
#07112:1616
#07218:16
#07212:0016
#01518:26
#03812:26
#03818:0026
#03912:26
#03918:0026
#0551a:00240000
#07812:26
#07818:0026
#07912:26
#07918:0026
#08518:00000026
#07412:24
#07418:0024
#07410:41
#07514:24
#0751a:0024
#07612:24
#07618:0024
#07714:24
#0771a:0024
#0003a0:1400000000340034
#0013a0:0000003400000034
#0023a0:0000003400003400
#0033a0:0034000024000000
#008340:14343434
#009340:24
#010380:14343434
#011380:24
#015380:16363636
#016380:26
#020380:14343434
#021380:34342400
#024320:1626
#025380:1626
#029320:1626
#032380:1626
#033320:1626
#037380:1626
#043320:14
#043340:00000034
#044320:0034
#045340:000000340034003400340034
#046340:003400340034003400340034
#047340:003400240000000000000000
#0553a0:0000140000340000
#0563a0:0034003400340024
#060320:16
#060340:0026
#061380:16
#061360:0026
#065320:1626
#068380:16
#068360:0026
#069320:16
#069340:0026
#073380:1626
#080320:14
#080340:0000000000340034
#081320:0000003400000034
#082340:0000003400000000
#082320:00000034
#083340:0034000000000000
#083320:000000343434
#084320:343434343434
#085320:343424000000
