This file was generated by Ched 2.7.0.0.
#TITLE ""
#ARTIST ""
#DESIGNER ""
#DIFFICULTY 0
#PLAYLEVEL
#SONGID ""
#WAVE ""
#WAVEOFFSET 0
#JACKET ""
#REQUEST "ticks_per_beat 480"
#00002: 4
#BPM01: 172
#BPM02: 180
#BPM03: 160
#00008: 01
#04908: 00010000
#04008: 02
#08308: 0002
#04708: 00030000
#TIL00: ""
#HISPEED 00
#MEASUREHS 00
#00017:0012001200000000
#00015:00120000
#00019:0012
#00012:0000000000240024
#0001a:2200000000240000
#00014:22
#00418:1300130024240000
#00415:0013000000000000
#0041b:0000001300000000
#00412:0000001300000013
#00414:00000000000000000024002400000000
#0011b:0000130000000013
#00116:0012
#00118:0000000000120000
#0011a:00000012
#00114:0000001200000000
#00115:00000033000000000000000000000000
#00217:0013000000001300
#00219:00130000
#00216:0013
#00316:13
#00317:00130000
#0031b:0000001300000000
#0031a:000000242424
#00312:000000242424
#0051b:1313000000002300
#00515:00130013000000000000000023000000
#00518:0000131300230000
#00512:00000000001300130000230000000000
#0061b:0000001313130000
#00616:00240024000000130013000000000000
#00612:2424240000000013
#00617:0000000000000013
#00610:41
#00719:1313
#0071b:0013000000130000
#00716:0013000000130000
#00714:00130000
#00712:0000001300000000
#00717:0000001300000000
#0081b:0013000000130000
#00816:0013000000130000
#00819:00130013
#00817:0000001300000013
#00812:0000001300000013
#00814:0013
#0091b:1313131313000000
#00916:00130013001300130000000000000000
#00912:00000000000000000000002323000000
#01016:00140014000000140014000000000000
#0101a:2414140000000000
#01012:0000002414140000
#0101b:0000000000000013
#01118:13
#01115:0013001300000000
#01112:13131313
#0111b:00000000130000001333333300000000
#0121b:1313
#01218:0013001300130013
#01215:00130013
#01212:2323
#0131b:0000001300000013
#01319:00001313
#01317:0000000000130000
#01312:2323
#01412:13000013000000000000130000000000
#01414:00000013
#01416:0000000000000013
#0141b:2323
#01615:0000130000130013
#0161b:1300000023230000
#01618:0013001300001300
#01612:2323000013000000
#01718:1300130000000013
#01715:0013001300000000
#0171b:0000000013130000
#01712:0000000013130000
#01815:13000000130000130000000000000000
#01818:0013001313000013
#01812:00000000000000000000001300000000
#0191b:13131200
#01918:0013001300120000
#0191a:00000012
#01912:13130000
#01915:0013001300000000
#01913:0012
#01916:0000000000120000
#01914:00000012
#02015:00130013001300130013001300130013
#02018:1313131313131313
#0211b:2323000013002300
#02117:0000000000130000
#02112:00230023000000000000000023000000
#02118:0000232300000000
#02115:00000000002300230000000000000000
#02215:00001300000000130000000000001300
#0221b:00000013000000000000130013000000
#02218:0000001313000013
#02212:2300000000131300
#02210:41
#02312:0013000000000000
#0231b:00000013000000000000000000000000
#02315:0000131300000013
#02318:0000001300000000
#02412:1313
#02418:13
#02417:00130013
#02416:0013000000130000
#0241b:0000001300000013
#02512:13
#02519:0013000000000000
#0251b:00130000
#02514:0013000000000000
#02516:00130000
#02518:0000000000220000
#02612:1313000013000013
#02615:0000131300000000
#02618:00130013000000000000000000000000
#0261b:00000000001300130000000013000000
#02614:0000000000130000
#02616:00000013
#02619:0000000000130000
#02617:0000000000000013
#02712:0000130000000013
#02717:00130000
#02716:0000001300000000
#0271b:0000001300000013
#02818:1300001300000000
#0281b:0013000013000013
#02815:00001300000000000013000000000000
#02819:0000000000130000
#02813:00000000000000000000001300000000
#02817:00000013
#02816:0000000000000013
#0291b:0000130000230000
#02916:0000130000230000
#02917:0000001300000000
#02912:0000001300000000
#03018:00001300000000130000000000001300
#03012:00000013000000000000130013000000
#03015:0000001313000013
#0301b:2300000000131300
#03010:41
#0311b:0013000000000000
#03112:00000013000000000000000000000000
#03118:0000131300000013
#03115:0000001300000000
#03314:0013000000000000
#03312:00130000
#03319:0013000000000000
#03317:00130000
#0331b:13
#03316:0000000000220000
#0341b:1313000013000013
#03418:0000131300000000
#03415:00130013000000000000000000000000
#03412:00000000001300130000000013000000
#03419:0000000000130000
#03417:00000013
#03414:0000000000130000
#03416:0000000000000013
#03517:00000013000013000000000000000000
#03512:0013131300000000
#03516:0000000000230000
#0351b:0000000000230000
#03618:13000000001300000013000000001300
#03615:0013001313130000
#0361b:00001300000000130000000013000000
#03612:13130000
#03718:1300001313000000
#03715:0013130000000000
#03712:1313
#0371b:00130000
#0381b:1300002300001300
#03814:0013130013130013
#03819:0013130013130013
#03812:2300001300002300
#03912:13232300
#03918:0013000000000000
#0391b:23132300
#03915:0000001300000000
#0401b:1313
#04018:0013001300001300
#04015:0000130000130013
#04012:23000023
#04010:41
#04112:1313
#04115:0013001300130013
#04118:00130013
#0411b:0023
#04212:13
#04218:0013001300130013
#04215:00130013
#0421b:00231300
#0431b:1313131300000000
#04315:00130013001300130000000000000000
#04312:0000000000001313
#04318:00000000000000000000003300130013
#0431a:00000000000000000033000000000000
#04319:0000000000330000
#04412:13001300000000000000001300000013
#04418:00130013000000000000130000001300
#0441b:00001313
#04415:00000000000000330013000000130000
#04413:00000000003300000000000000000000
#04414:0000003300000000
#0451b:13000023
#04515:00130000000000000000000000000000
#04518:0013000000000000
#04512:000000000000000000130000000000000000000000000000000000002400000000000000000000000000000000000000
#0451a:00240000
#04516:000000000024000000230000
#04519:000000000000000000000023
#04514:000000000000000000000023
#04614:000014000014
#04613:0014
#04612:002300000000000014000000
#04617:002300000000000000000000
#0461a:00240024
#04619:000000000024000000000024
#04618:000000000000002400000000
#04713:14
#04712:001400000000
#04717:000000000000000000000000140000140000140000140000140000140000140000140000140000001400000014000000
#04716:000000000000000000000000000000000000000000000000000000140000000000000000000000140000000000000000000000140000000000000000000000140000000000000000000000001400000000000000000000000000000014000000
#04718:000000000000000024000000000000000000000000000000000000000000000000140000000000000000000000140000000000000000000000140000000000000000000000140000000000000000000000000000140000000000000000000000
#04817:140014001400140000140000140000140000140000140000
#04818:000014000000000000001400000000000000000000140000000000000000000000140000000000000000000000140000
#04816:00001400001400000014000000140000
#04917:1414000000000000
#04916:00140000000000000000000000000000
#04918:00000014000000001300000000001300
#04915:0000001300130000
#0491b:00000013
#0491f:00110000
#05015:1313
#05012:0013000000131300
#0501b:0000001313000013
#05018:00000013
#05112:0013130000131300
#05118:0013130000000000
#0511b:0000001313000013
#05115:0000001313000000
#0521b:1300000000000022
#05212:0013000000000000
#05218:00001300001300130000000000000000
#05215:0000131313000000
#05315:0000131300130013
#05318:00000000001300001300000000000000
#05312:00000013
#05418:13
#0541b:0013000000130000
#05412:0000001300000000
#05419:0013
#05414:0013
#05416:0013000000130000
#05417:0000000000000013
#05518:0013001300000013
#05515:00001313
#0551b:0000230000230000
#05512:0000230000230000
#05615:1300000000000023
#0561b:00002300000000000000230000000033
#05612:00002300000000000000230000000033
#05618:0000000000000023
#05815:0013000000001300
#05818:00000013000000001300000000000000
#0581b:0000001300131300
#05812:23000000000000130000130000001300
#05817:0000000000000013
#0581f:21
#05916:0013130000000013
#0591b:00000013000023000000000000001300
#05912:0000002300000000
#05910:00410000
#06012:1300130000131313
#06017:13001313
#0601b:0013131300130013
#06016:0013001300000000
#0611b:0013000000232323
#06117:00130000
#06116:00001300000000000000002300230000
#06112:13130000
#06212:1300130000000013
#06215:0013001300000000
#0621b:00000013000000130000000013000000
#06218:00130000001300000000000000000000
#06219:0000000000130000
#06217:0000000000000013
#06316:0013131300000000
#0631b:00000013000013000000000000001300
#06312:0000000000230013
#06317:0000000000230000
#06418:13
#0641b:0013001300000013
#06412:0013000013131300
#06417:00000000000000000013001300000000
#06416:0000000000000013
#0651b:0000130013230000
#06516:0000130000230000
#06512:1313001300000000
#06517:0000001300000000
#06618:0013000000001300
#06615:00000013000000001300000000000000
#06612:0000001300131300
#0661b:23000000000000130000130000001300
#06616:0000000000000013
#06717:0013130000000013
#06712:00000013000023000000000000001300
#0671b:0000002300000000
#06912:0013000000232323
#06917:00001300000000000000002300230000
#0691b:13130000
#06916:00130000
#0701b:1300130000000013
#07018:0013001300000000
#07012:00000013000000130000000013000000
#07015:00130000001300000000000000000000
#07014:0000000000130000
#07016:0000000000000013
#07117:0013131300000000
#07112:00000013000013000000000000000000
#07116:0000000000230000
#0711b:0000000000230000
#07215:13000000001300000013000000001300
#07218:0013001313130000
#07212:00001300000000130000000013000000
#0721b:13130000
#07312:13
#07318:1313000000000000
#0731b:00131300
#07315:0000131313000000
#07412:1300002300001300
#07419:0013130013130013
#07414:0013130013130013
#0741b:2300001300002300
#07410:41
#0751b:13232300
#07515:0013000000000000
#07512:23132300
#07518:0000001300000000
#0761b:13000013
#07614:0013130013130013
#07619:0013130013130013
#07612:2600001300002600
#07618:0000002600000000
#07712:13262300
#07718:2613000000000000
#0771b:00132300
#07715:0000001300000000
#07812:1600002600001600
#07819:0013130013130013
#07814:0013130013130013
#07818:2600001600002600
#07915:0013000000000000
#07918:1600261300000000
#07912:26162300
#0791b:0023
#08017:0012001200000000
#08019:00120000
#08015:0012
#0801a:2200000000240024
#08014:22
#08012:0000000000240000
#08112:0000130000000013
#08118:00000033000000001200000000000000
#08116:0000000000120000
#08114:00000012
#0811a:0000001200000000
#08216:0013000000001300
#08214:00130000
#08217:0013
#08317:13
#08316:00130000
#08312:000000000000000000130000000014000000140000001400
#0831a:000000242424
#08412:001400140014001400140014
#0841a:242424242424
#08512:001400140000000000240000
#0851a:240024002400000000240000
#0321b:1313
#03215:13
#03216:00130013
#03217:0013000000130000
#03212:0000001300000013
#0681b:1300130000131313
#06816:13001313
#06812:0013131300130013
#06817:0013001300000000
#01518:26
#01516:00280000
#01514:002a
#01512:0000002c
#0571b:33333333000000000000000000000000
#05712:33333333000000000000000000000000
#0075b:0000000000530000
#00756:0000000000530000
#00757:0000000000000013
#00752:0000000000000013
#0095b:0053
#0105a:00140000
#01052:0000000000140000
#01152:00000013
#0115b:0053
#01157:00000013
#01258:0000000000000053
#01452:00000053000000000000000000000000
#01455:0000001300000000
#01655:0000000000000013
#01758:13130000
#01755:0013001300000000
#0175b:0000000013130000
#01752:0000000013130000
#01858:0053
#01852:00000000000000000000001300000000
#0185b:00000000000000000000001300000000
#0195b:53535200
#01958:0023002300220000
#0195a:00000052
#01952:63630000
#01955:0023002300000000
#01953:0062
#01956:0000000000220000
#01954:00000062
#0215b:00005343
#02157:0000000000230000
#02152:00000033
#02258:0000000000000053
#02358:0000005300000000
#02355:0000005300000000
#02352:0000000000130000
#0235b:0000000000130000
#02452:5353
#02457:00530053
#02456:0023000000230000
#0245b:0000002300000023
#02556:00530000
#02657:0000000000000053
#02652:0000000000000053
#02756:0000006300000000
#0275b:0000006300000000
#02752:0000000000130000
#02757:0000000000130000
#02855:0053000000000000
#02856:0000000000000063
#0285b:0000000000000063
#02957:0000005300000000
#02952:0000005300000000
#02956:0000000000130000
#0295b:0000000000130000
#03055:0000000000000063
#03155:0000006300000000
#03158:0000006300000000
#0315b:0000000000130000
#03152:0000000000130000
#03357:00630000
#0345b:0000000000000063
#03552:0000005300000000
#03556:0000000000130000
#0355b:0000000000130000
#03655:0000000000530000
#03758:0053
#03752:0053
#0375b:00000013
#03755:00000013
#0385b:13000013
#03852:0000001300000000
#03952:1353
#0395b:00135300
#03958:00000013
#03955:00000013
#04757:000000000000000000000000540000540000540000540000540000540000540000540000540000005400000054000000
#04756:000000000000000000000000000000000000000000000000000000240000000000000000000000240000000000000000000000240000000000000000000000240000000000000000000000002400000000000000000000000000000024000000
#04758:0000000000000000000000240000002400000024000000240000000024000000
#04857:540054005400540000540000540000540000540000540000
#04858:000024000000000000002400000000000000000000240000000000000000000000240000000000000000000000240000
#04856:00002400002400000024000000240000
#04957:5454000000000000
#04956:00240000000000000000000000000000
#04958:00000024000000000000000000000000
#05052:0053000000005300
#0505b:0063
#05255:0053
#0545b:0063000000000000
#05456:0000000000530000
#05857:0000000000000053
#06052:53530000
#06057:00005353
#06056:0023002300000000
#0605b:0000000000230023
#06152:00530000
#06257:0000000000000053
#06356:0000006300000000
#06357:0000000000130000
#06352:0000000000130000
#06452:0053000000000000
#0645b:0000000000000063
#06552:0000005300000000
#06556:0000000000130000
#0655b:0000000000130000
#06656:0000000000000063
#07056:0000000000000063
#07258:0000000000630000
#07355:0063
#0735b:0063
#07352:00000013
#07358:00000013
#07452:13000013
#0745b:0000001300000000
#0755b:1363
#07552:00136300
#07555:00000013
#07558:00000013
#0765b:13000013
#07652:0000001300000000
#07752:1353
#0775b:00135300
#07758:00000013
#07755:00000013
#07852:16000016
#07858:0000001600000000
#07958:1600000000130000
#07952:00166300
#0795b:0063
#07955:0000000000130000
#0325b:6363
#03256:00630063
#03257:0023000000230000
#03252:0000002300000023
#0685b:63630000
#06856:00006363
#06857:0023002300000000
#06852:0000000000230023
#0695b:00630000
#07157:0000005300000000
#07156:0000000000130000
#0715b:0000000000130000
#00052:0000000000140014
#0005a:0000000000140000
#01558:46
#01556:00480000
#01554:004a
#01552:0000004c
#0565b:0053000000000000
#05652:0063000000000000
#05658:0000000000000053
#05655:0000000000000063
#0595b:0000005300000000
#05952:0000006300000000
#05958:0000000000130000
#05955:0000000000130000
#06752:0000006300000000
#0675b:0000005300000000
#06755:0000000000130000
#06758:0000000000130000
#0805a:0000000000140014
#08052:0000000000140000
#08552:00000014
#0855a:00000014
#0575b:00130000
#05752:00130000
#000380:0000000000000013
#001380:0023000000000000
#001351:00001333000000000000000000000000
#001321:00230000
#001321:0000000000000013
#002321:0000002300000000
#0023b0:0000001300230000
#002321:0000000000130023
#0023b0:0000000000000013
#0033b0:0023000000000000
#003321:0013002300000000
#0073b1:0000000000130000
#007371:0000000000000023
#007360:0000000000130000
#007320:0000000000000023
#0093b0:0013
#009370:00000023
#0113b0:00000000000000001333333300000000
#011370:00000023
#012380:0000000000000013
#0133b0:0023000000000000
#014320:00000013000000000000000000000000
#014350:0000002300000000
#018380:0013
#0183b0:00000000000000000000002300000000
#0193b0:13333200
#019380:0033003300320022
#0193a0:00000032
#019321:13330000
#019351:0033003300000000
#019331:0032
#019361:0000000000320022
#019341:00000032
#0213b1:00001323
#021371:0000000000530000
#0223b1:1323000000000000
#022351:0000132300000000
#022381:0000000000000013
#0233b1:0023000000000000
#023351:0000001300000000
#023321:0000000000230000
#023380:0000001300000000
#0233b0:0000000000230000
#024320:13230000
#024360:0033000000000000
#024371:00132300
#0243b1:0000003300000000
#024320:00001323
#024360:0000000000330000
#024371:00000013
#0243b1:0000000000000033
#025371:23
#025361:00130000
#025321:0000000000000023
#025380:0000000000123222
#025390:00000000000000000000003200320000
#026370:0000000000000013
#0273b0:0023000000000000
#026321:0000000000000013
#027361:0023000000000000
#027361:0000001300000000
#027321:0000000000230000
#0273b0:0000001300000000
#027370:0000000000230000
#028350:0013000000000000
#028320:0000002300000000
#028360:0000000000000013
#029320:0023000000000000
#0283b1:0000000000000013
#029371:0023000000000000
#029371:0000001300000000
#0293b1:0000000000230000
#029320:0000001300000000
#029360:0000000000230000
#030320:1323000000000000
#030380:0000132300000000
#030350:0000000000000013
#031320:0023000000000000
#031380:0000001300000000
#0313b0:0000000000230000
#031351:0000001300000000
#031321:0000000000230000
#0323b1:13230000
#032371:0033000000000000
#032360:00132300
#032320:0000003300000000
#0323b1:00001323
#032371:0000000000330000
#032360:00000013
#032320:0000000000000033
#033360:23
#033370:00130000
#0333b0:0000000000000023
#033361:0000000000123222
#033351:00000000000000000000003200320000
#0343b1:0000000000000013
#035371:0023000000000000
#035321:0000001300000000
#035361:0000000000230000
#036351:0000000000130000
#036321:00000023
#037381:0013
#0373b1:00000023
#037320:0013
#037350:00000023
#0393b0:0013
#039380:00000023
#039321:0013
#039351:00000023
#0433b1:0013
#0433a1:00000000000000000033000000000000
#043391:0000000000330000
#043381:00000000000000000000003323000000
#044321:00130000
#044331:00000000003300000000000000000000
#044341:0000003300000000
#044351:00000000000000332300000000000000
#047371:000000000000000000000000140000540000540000540000540000540000540000540000540000005400000054000000
#047361:000000000000000000000000000000000000000000000000000000540000000000000000000000540000000000000000000000540000000000000000000000540000000000000000000000005400000000000000000000000000000054000000
#047381:0000000000000000000000540000005400000054000000540000000054000000
#048371:540054005400540000540000540000540000540000540000
#048381:000054000000000000005400000000000000000000540000000000000000000000540000000000000000000000540000
#048361:00005400005400000054000000540000
#049371:5454240000000000
#049361:00540000000000000000000000000000
#049381:00000054000000000000000000000000
#050321:0013000000000000
#050351:0000002300000000
#0503b1:0013
#050381:0000000000230000
#050321:00000013
#050351:0000000000000023
#051381:0000000000132300
#051351:0000000000000013
#052351:23
#052351:0013
#053321:0023000000000000
#0523b0:0000000000000012
#0523a0:00000000000000000000000000000032
#0533b0:3222000000000000
#0533a0:00320000000000000000000000000000
#0543b0:0013000000000000
#054370:0000002300000000
#054360:0000000000130000
#054320:0000000000000023
#0563b0:0013000000000000
#056380:0000002300000000
#056321:0013000000000000
#056351:0000002300000000
#056381:0000000000000013
#0563b1:00000000000000000000000000000033
#0573b1:33333333230000000000000000000000
#056350:0000000000000013
#056320:00000000000000000000000000000033
#057320:33333333230000000000000000000000
#0583b0:13
#058380:0023000000000000
#058350:00130000
#058320:0000002300000000
#058370:0000000000000013
#0593b0:0023000000000000
#0593b0:0000001300000000
#059380:0000000000230000
#059321:0000001300000000
#059351:0000000000230000
#060321:13332300
#060361:0033003300000000
#060370:00001333
#0603b0:0000000000330033
#061370:23
#061320:00130000
#061360:0000000000230000
#062320:0013
#062340:0000000000330000
#062360:00000023
#062370:0000000000000013
#0633b0:0023000000000000
#063360:0000001300000000
#063320:0000000000230000
#064320:0013000000000000
#064360:0000002300000000
#0643b0:0000000000000013
#065370:0023000000000000
#065320:0000001300000000
#065360:0000000000230000
#066320:13
#066350:0023000000000000
#066380:00130000
#0663b0:0000002300000000
#066360:0000000000000013
#067320:0023000000000000
#067320:0000001300000000
#067350:0000000000230000
#0673b1:0000001300000000
#067381:0000000000230000
#0683b1:13332300
#068371:0033003300000000
#068360:00001333
#068320:0000000000330033
#069360:23
#0693b0:00130000
#069370:0000000000230000
#0703b0:0013
#070390:0000000000330000
#070370:00000023
#070360:0000000000000013
#071320:0023000000000000
#071370:0000001300000000
#0713b0:0000000000230000
#072380:0000000000130000
#0723b0:00000023
#073350:0013
#073320:00000023
#0733b1:0013
#073381:00000023
#075321:0013
#075351:00000023
#0753b0:0013
#075380:00000023
#0773b0:0013
#077380:00000023
#077321:0013
#077351:00000023
#079321:0013
#079351:0000000000230000
#0793b0:0013
#079380:0000000000230000
#080350:0000000000000013
#081350:0023000000000000
#081381:00001333000000000000000000000000
#0813b1:00230000
#0813b1:0000000000000013
#0823b1:0000002300000000
#082320:0000001300230000
#0823b1:0000000000130023
#082320:0000000000000013
#083320:0023000000000000
#0833b1:0013002300000000
