This file was generated by Ched 2.7.0.0.
#TITLE ""
#ARTIST ""
#DESIGNER ""
#DIFFICULTY 0
#PLAYLEVEL
#SONGID ""
#WAVE ""
#WAVEOFFSET 0
#JACKET ""
#REQUEST "ticks_per_beat 480"
#00002: 4
#BPM01: 172
#BPM02: 180
#BPM03: 160
#00008: 01
#04908: 00010000
#04008: 02
#08308: 0002
#04708: 00030000
#TIL00: ""
#HISPEED 00
#MEASUREHS 00
#00015:0013001300000000
#00018:00131300
#00012:0000000000240000
#0001a:0000000000000024
#0001b:23
#0041b:13
#00418:0000130024240000
#00415:0013000000000000
#00412:0000001300000013
#00414:00000000000000000024000000000000
#00218:0013000000130013
#00215:00131300
#00212:00000013
#0021b:0000001300000000
#00315:13130000
#00318:000000000000000000130000000000002600000000000000
#0031b:0013000000000000
#00312:000000260026
#0011b:0000001300000013
#00115:0013130000130000
#00118:00000013000000001300000000000000
#00112:0000000000001313
#0051b:13
#00518:0013000000230000
#00515:00130023
#00512:0000001300000000
#00716:13
#00719:0013000000000000
#00714:00130000
#00712:0013
#00717:0000001300000000
#0071b:0000000000130000
#0061b:23333333000000000000000000001300
#00612:00000000000000333333000000000000
#00610:41
#00818:00130000
#00812:0013001300000000
#0081b:00001313
#00815:0000000000130013
#00915:0000001300000000
#00918:0013
#0091b:00333333000000000000003300000000
#01012:0000000000000013
#01015:00333333000000000000000000000000
#01018:00000000000000333333000000000000
#01115:13000000000000001333333300000000
#01118:0013001300000000
#0111b:00130000
#01218:0013000000130013
#01215:00130013
#0121b:0000001300000000
#01212:0013
#01312:0000001300000000
#01315:0013
#01318:0000000000130013
#0131b:00000013
#01418:00000013000000000000000013000000
#01412:0000000000130000
#01415:1300000000000013
#0161b:0000000000000013
#01618:0013001300001300
#01612:0013
#01615:0000130000130000
#01712:13130000
#01718:0013000000000000
#0171b:0000001300130000
#01715:0000000013000013
#0181b:13
#01812:0013000000000013
#01818:00131300
#01815:0000001300000000
#02112:0033000013002300
#02115:0000000000130000
#0211b:33
#0221b:2313000000001300
#02215:0000131300000013
#02218:0013
#02212:0000000000130000
#02210:41
#02318:0000130000000013
#02315:0000001300000000
#02515:13
#02518:0013000000000000
#0251b:00130000
#02612:1313
#02618:0013000000130000
#02615:00130013
#0261b:0000001300000013
#02715:00130000
#0271b:0000001300000000
#02712:0000000000000013
#02815:0013000000130013
#0281b:00001313
#02818:13
#02918:00130000
#02912:0000001300000000
#02915:0000000000230000
#03618:13001313
#03615:0013001300130000
#0361b:00130000
#03612:0000000000000013
#03715:0013001300000000
#0371b:00130000
#03718:1313
#03712:0013
#03818:0014140000000014
#0381a:0000000014140000
#03812:24000024
#03814:0000002400000000
#03916:0014001400000000
#03912:2424
#0391a:00240000
#04015:0013001300130000
#04018:00130023
#0401b:2313
#04012:0000000000000013
#04010:41
#04719:000000000000000000000000140000140000140000140000140000140000140000140000140000001400000014000000
#04718:000000000000000000000000000000000000000000000000000000140000000000000000000000140000000000000000000000140000000000000000000000140000000000000000000000001400000000000000000000000000000014000000
#0471a:0000000000000000000000140000001400000014000000140000000014000000
#04712:002400000000000000000000
#04819:140014001400140000140000140000140000140000140000
#0481a:000014000000000000001400000000000000000000140000000000000000000000140000000000000000000000140000
#04818:00001400001400000014000000140000
#04919:1414000000000000
#04918:00140000000000001300000000000000
#0491a:00000014000000000000000000000000
#04915:0000001300130013
#0491b:00000013
#0491f:00110000
#05018:13
#05012:0013000000000000
#0501b:00001313
#05015:0000000000130013
#05112:0013000000130000
#05118:00130013
#0511b:0013
#05115:0000001300000013
#0521b:13
#05212:0013000000000000
#05218:00131300
#05215:0000001300000000
#05315:00131300
#05318:0000001300130013
#05312:00000013
#05515:0013000000000000
#05518:0013
#0551b:0000230000230000
#05512:0000230000230000
#05615:13
#05612:0023000000240024
#0561a:0000000000240024
#0561b:0023000000000000
#0191b:1300000000000013
#01915:0013001300000000
#01918:00130000
#01912:0000000000000013
#02415:1300130000130000
#02418:0013000013000000
#0241b:0000001300000013
#02412:00000013
#03018:0000131300000013
#03012:2313000000001300
#03012:00000013
#03015:0013
#0301b:0000000000130000
#03010:41
#03115:0000130000000013
#03118:0000001300000000
#03318:13
#03315:0013000000000000
#03312:00130000
#0341b:1313
#03415:0013000000130000
#03418:00130013
#03412:0000001300000013
#03518:00130000
#03512:0000001300000000
#03515:0000000000230000
#03218:1300130000130000
#03215:0013000013000000
#03212:0000001300000013
#0321b:00000013
#04115:1300000000130013
#04112:0013001300000000
#04118:00130013
#0411b:0023
#0421b:13
#04215:0013000013000000
#04212:0000001300130013
#04218:00230013
#05415:13
#0541b:0013000000000000
#05412:00001313
#05418:0000000000130013
#05815:0000131300000013
#0581b:2313000000001300
#05812:0000000000130000
#05818:0013
#0581f:21
#05918:0000130000000013
#05912:0000002300000000
#0591b:0000002300000000
#05910:00410000
#06112:13
#06115:0013000000000000
#06118:00130000
#06212:13130000
#06218:0013000000130000
#0621b:0000001300000013
#06215:00001313
#06315:00130000
#06318:0000001300000000
#06312:0000000000000013
#0631b:0000000000230000
#06415:0013000000130013
#0641b:00001313
#06418:13
#06518:00130000
#06512:0000001300000000
#06515:0000000000230000
#06012:13130013
#06018:0013000013000000
#0601b:0000001300000013
#06015:0000000000130000
#0661b:0000000000130000
#06618:0000131300000013
#06612:2313000000001300
#06615:0013
#06715:0000130000000013
#0671b:0000002300000000
#06712:0000002300000000
#0691b:13
#06918:0013000000000000
#06915:00130000
#0701b:13130000
#07015:0013000000130000
#07012:0000001300000013
#07018:00001313
#07118:00130000
#07115:0000001300000000
#07112:0000000000230000
#0681b:13130013
#06815:0013000013000000
#06812:0000001300000013
#06818:0000000000130000
#07414:0014140000000014
#07412:0000000014140000
#0741a:24000024
#07418:0000002400000000
#07410:41
#07516:0014001400000000
#0751a:2424
#07512:00240000
#07618:0014140000000014
#0761a:0000000014140000
#07612:24000024
#07614:0000002400000000
#07716:0014001400000000
#07712:2424
#0771a:00240000
#08018:0013001300000000
#08015:00131300
#0801a:0000000000240000
#08012:2300000000000024
#08215:0013000000130013
#08218:00131300
#0821b:00000013
#08212:0000001300000000
#08318:130000130000260000002600
#08315:0000001300000000
#08312:000000130000000000000000000000002600000000000000
#08112:0000001300000013
#08118:0013130000130000
#08115:00000013000000001300000000000000
#0811b:0000000000001313
#07814:0014140000000000
#07812:0000000014140016
#07818:26000026
#07816:0000002600000000
#07915:0016001600000000
#07918:2626
#07912:00260000
#07215:13001313
#07218:0013001300130000
#07212:00130000
#0721b:0000000000000013
#07318:0013001300000000
#07312:00130000
#07315:1313
#0731b:0013
#0451a:000000240024002400000000
#04512:000000000000000000240024
#0461a:00240024
#04616:000000000024000000000024
#04612:002400000000002400000000
#08518:000026000000000000260000
#08512:262600
#0151a:24
#01514:00240000
#01518:0024
#01512:00000024
#08412:262626
#08418:002600260026
#0431b:00000000000000000033333300333333
#0441b:00333333003333330033333333333333
#0201b:33333333
#02012:0033003300330033
#0075b:0000000000530000
#00758:0000000000000013
#00958:0053
#01155:0063
#01152:00000013
#01258:0000000000000053
#01458:00000053000000000000000000000000
#0145b:0000001300000000
#0175b:0000000000130000
#01858:0053
#0185b:00000000000000000000001300000000
#02152:00006333
#02155:0000000000230000
#02255:0000000000000063
#02355:0000005300000000
#02352:0000000000130000
#0255b:00530000
#0265b:0000000000000063
#0275b:0000006300000000
#02758:0000000000130000
#02855:0053000000000063
#02952:0000005300000000
#02955:0000000000130000
#03758:0053
#03752:0053
#0375b:00000013
#03755:00000013
#04759:000000000000000000000000540000540000540000540000540000540000540000540000540000005400000054000000
#04758:000000000000000000000000000000000000000000000000000000240000000000000000000000240000000000000000000000240000000000000000000000240000000000000000000000002400000000000000000000000000000024000000
#0475a:0000000000000000000000240000002400000024000000240000000024000000
#04859:540054005400540000540000540000540000540000540000
#0485a:000024000000000000002400000000000000000000240000000000000000000000240000000000000000000000240000
#04858:00002400002400000024000000240000
#04959:5454000000000000
#04958:00240000000000000000000000000000
#0495a:00000024000000000000000000000000
#05052:0053000000000000
#05258:0063
#0195b:0000000000000053
#01952:0000000000000063
#03058:0000000000000053
#03158:0000006300000000
#0315b:0000000000130000
#03352:00630000
#03452:0000000000000053
#03552:0000005300000000
#03555:0000000000130000
#0545b:0063000000000000
#05855:0000000000000063
#06158:00530000
#0625b:0000000000000063
#06358:0000005300000000
#0635b:0000000000130000
#06455:0053000000000063
#06552:0000005300000000
#06555:0000000000130000
#06658:0000000000000053
#06955:00630000
#07052:0000000000000053
#07355:0063
#0735b:0063
#07352:00000013
#07358:00000013
#07155:0000006300000000
#07152:0000000000130000
#00052:0000000000140000
#0005a:0000000000000014
#03952:0054
#03956:00000014
#05652:0063000000000054
#0565b:0053000000000000
#0565a:0000000000000064
#08558:00000016
#0155a:14
#01554:00140000
#01558:0014
#01552:00000014
#05952:0000002300000000
#0595b:0000002300000000
#0675b:0000002300000000
#06752:0000002300000000
#0755a:0064
#07556:00000014
#07752:0054
#07756:00000014
#0805a:0000000000140000
#08052:0000000000000014
#07958:0016
#05754:00140000
#05758:00140000
#0063b0:13333333000000000000000000000000
#006380:00230000
#006320:00000000000013333333000000000000
#006350:0000000000230000
#0073b0:0000000000130000
#007380:0000000000000023
#0093b0:13333333000000000000000000000000
#009380:00230000
#009380:0013
#0093b0:00000000000000000000003323000000
#010350:13333333000000000000000000000000
#010320:00230000
#010380:00000000000013333333000000000000
#0103b0:0000000000230000
#011350:00000000000000001333333300000000
#011320:00000023
#012380:0000000000000013
#0133b0:0023000000000000
#014380:00000013000000000000000000000000
#0143b0:0000002300000000
#018380:0013
#0183b0:00000000000000000000002300000000
#0193b0:0000000013000033
#019380:00000000000000000000003300000000
#0203b0:33333333
#0213b0:33
#021380:00230000
#019321:0000000000000013
#020321:0033003300330033
#021321:0033000000000000
#021351:00230000
#021321:00001323
#021351:0000000000530000
#022351:0000000000000013
#023321:0023000000000000
#023351:0000001300000000
#023321:0000000000230000
#0253b1:00130000
#025381:0000000000230000
#0263b1:0000000000000013
#027381:0023000000000000
#0273b1:0000001300000000
#027381:0000000000230000
#028351:0013000000000000
#028321:0000002300000000
#028351:0000000000000013
#029321:0023000000000000
#029321:0000001300000000
#029351:0000000000230000
#030381:0000000000000013
#0313b1:0023000000000000
#031381:0000001300000000
#0313b1:0000000000230000
#033321:00130000
#033351:0000000000230000
#034321:0000000000000013
#035351:0023000000000000
#035321:0000001300000000
#035351:0000000000230000
#037381:0013
#0373b1:00000023
#037320:0013
#037350:00000023
#039320:0014
#039360:00000024
#0433b0:13003300330033003333333300333333
#0433a0:00330033003300330000000000000000
#043370:00000033
#0443b0:33333333003333333333333333333333
#044370:00330000
#045370:23
#047390:000000000000000000000000140000540000540000540000540000540000540000540000540000005400000054000000
#047380:000000000000000000000000000000000000000000000000000000540000000000000000000000540000000000000000000000540000000000000000000000540000000000000000000000005400000000000000000000000000000054000000
#0473a0:0000000000000000000000540000005400000054000000540000000054000000
#048390:540054005400540000540000540000540000540000540000
#0483a0:000054000000000000005400000000000000000000540000000000000000000000540000000000000000000000540000
#048380:00005400005400000054000000540000
#049390:5454240000000000
#049380:00540000000000000000000000000000
#0493a0:00000054000000000000000000000000
#050320:0013000000000000
#050350:0000002300000000
#052380:0013
#0523b0:0000000000000023
#0543b0:0013000000000000
#054380:0000002300000000
#056320:0013000000000000
#056350:0000002300000000
#0563b1:0013000000000000
#056381:0000002300000000
#056321:0000000000000014
#057341:00240000
#0563a0:0000000000000014
#057380:00240000
#058350:0000000000000013
#059320:0023000000000000
#059320:0000001300000000
#059350:0000000000230000
#0593b1:0000001300000000
#059381:0000000000230000
#061381:00130000
#0613b1:0000000000230000
#0623b1:0000000000000013
#063381:0023000000000000
#063381:0000001300000000
#0633b1:0000000000230000
#064351:0013000000000000
#064321:0000002300000000
#064351:0000000000000013
#065321:0023000000000000
#065321:0000001300000000
#065351:0000000000230000
#066381:0000000000000013
#0673b1:0023000000000000
#0673b1:0000001300000000
#067381:0000000000230000
#067320:0000001300000000
#067350:0000000000230000
#069350:00130000
#069320:0000000000230000
#070320:0000000000000013
#071350:0023000000000000
#071350:0000001300000000
#071320:0000000000230000
#073350:0013
#073320:00000023
#0733b1:0013
#073381:00000023
#0753a1:0014
#075361:00000024
#077321:0014
#077361:00000024
