This file was generated by Ched 2.7.0.0.
#TITLE ""
#ARTIST ""
#DESIGNER ""
#DIFFICULTY 0
#PLAYLEVEL
#SONGID ""
#WAVE ""
#WAVEOFFSET 0
#JACKET ""
#REQUEST "ticks_per_beat 480"
#00002: 4
#BPM01: 172
#BPM02: 180
#BPM03: 160
#00008: 01
#04908: 00010000
#04008: 02
#08308: 0002
#04708: 00030000
#TIL00: ""
#HISPEED 00
#MEASUREHS 00
#00018:0012001200000000
#00016:00120000
#0001a:2212
#00013:121212121212000000000000
#00012:001200000012000000120000000000260000000000260000
#00014:000000120000001200000012000000000000000000000000
#0001c:0000000000220000
#0041a:1414000000240000
#00416:00120000140014000000000000000000
#00415:0000000000000013
#00412:00000000001200000000002400000000
#0041b:0000000000001313
#00418:0024
#00414:00000000000000000024000000000000
#00118:00000000120000000000000000000012
#0011a:00000000000000001212121212120000
#0011b:0000000000000000000000000000000000120000001200000012000000000000
#00119:0000000000000000000000000000000000000012000000120000001200000000
#00112:0000000012000012
#00114:00000032000000000000120000000000
#00116:0000001200001200
#00214:12000000000000000000001200000000
#0021a:00120000000000001200000000000000
#00216:00001200000000000012000000000000
#0021c:00000012000022000000000000000000
#00212:00120000
#00218:00000000000000120000120000000000
#00217:00000000000000000000000000120000
#00219:0000000000000012
#00215:00000000000000000000000000000012
#0021b:00000022
#00317:12
#00313:00120000000000000000000000000000
#00316:000000000000000000120000000000000000120000000000000012000000120000001200000012000000000000000000
#00318:000000120000001200120000
#00314:00000000001200000000000000000000
#00312:0000000000000000000000000000000000000000001200002c000000000000002c000000000000002c00000000000000
#0031a:0022000000000000
#00517:1313000000000000
#00512:00130013000000000000230000000000
#0051b:0000131313000000
#00516:00000000001300130000000000000000
#00612:2c2c2c2c2c0012001200120014001400
#0061c:00000000000000120012000000000000
#0061a:0000000000001414
#00610:41
#00918:00130000130000000000000000000000
#0091b:0013000000000000
#00915:00000013000013001600000000000000
#00912:00000000001300130000002323000000
#00712:1c1c1c1c
#00718:00001300000000130000130000000013
#00715:00000013000013000000001300001300
#00812:1c23000000000000
#01018:00120012000000000000000013000000
#0101a:2414140000000000
#01016:00000000000000120012000000000000
#01012:0000002414140000
#01015:0000000000000013
#01112:1300130022142619
#01116:00000000000000000012001300140016
#0111b:13130000
#01115:0013000000000000
#01118:0000001300000000
#01212:1c13000013190000
#0121b:0013000013130000
#01218:0000130000000013
#01215:0000001300001300
#01315:1900001300001300
#0131b:0013000013130000
#01318:0000130000000013
#01312:0000000013190000
#0211c:0012
#02117:00000000000000000012000000000000
#02119:0000000000120000
#0211b:23000000230000000000001200000000
#02116:00000022
#02112:00230000002300000000000022000000
#02118:0023002300000000
#02115:00000023000000230000000000000000
#01717:00000012
#01716:12120000
#0171c:00000012
#01718:0012000000000000
#0181c:1212000000000000
#01812:00120012000000000000000000000000
#0181b:0000121200000000
#01813:00000000001200120000000000000000
#0181a:0000000012120000
#01814:00000000000000000012001200000000
#01819:0000000000001212
#01815:00000000000000000000000000120012
#01916:00120012001200120012001200120012
#01918:1212121212121212
#02017:12121212121212121212121212121212
#01517:00001300000000000000001300000000
#0151a:00000013000000000000000000000000
#01515:0000001300000000
#01518:00000000000000130000000000000000
#01514:0000000000130000
#0151b:13
#01512:26282a2c
#01415:1900001300001300
#01418:0000130000000013
#0141b:0013000013130000
#01412:0000000013190000
#01612:1913000013131300
#01615:0000130000190000
#01618:0000001300000012
#0161b:00001313
#02212:2600001c0000001c0000000000001300
#02218:00001613
#0221b:0000000000130000
#02215:00000000000000000000001600161900
#02210:41
#0231b:0013000000000000
#02318:16000016000000000000001200001200
#0231c:0000000000120000
#0231a:00000012
#02316:00000000000000000000000000120000
#02314:00000000000000000000000000000012
#02315:00190000
#02312:00000000001c1c000000000000000000
#0241b:1313
#02419:0013001300130013
#02417:00130013
#02412:2316131613161316
#0251b:13
#02518:00001600000000001300002200220000
#02515:0000191300000000
#02512:1316000000000000
#0251c:0000000000222222
#02912:0013
#02914:000000000000000000000000000000000000000000000000000000000000000000000000000000000000000000000000001300001300000013000000000000000000000000000000000000000000000000000000000000000000000000000000
#02916:000000000000000000000000000000000000000000000000000000000000000000000000000000000000000000000000000013000000130000130000130000001300000000000000000000000000000000000000000000000000000000000000
#02915:000000000000000000000000000000000000000000000000000000000000000000000000000000000000000000000000000000130013001300000000000000000000000000000000000000000000000000000000000000000000000000000000
#02918:000000000000000000000000000000000000000000000000000000000000000000000000000000000000000000000000000000000000000000001300000013000013000013000000000000000000000000000000000000000000000000000000
#02917:000000000000000000000000000000000000000000000000000000000000000000000000000000000000000000000000000000000000000000000013001300130000000000000000000000000000000000000000000000000000000000000000
#0291a:000000000000000000000000000000000000000000000000000000000000000000130013000000000000000000000000
#02919:000000000000000000000000000000000000000000000000000000000000000000000000000000000000000000000000000000000000000000000000000000000000001300130013000000000000000000000000000000000000000000000000
#03012:00001c001c161413
#03018:00000013000000130000160000000000
#0301a:00000014
#0301b:00130000001300000000000000001300
#03010:41
#03119:00130000
#0311b:0000001300000023
#03114:00130000
#03116:0000001300000000
#03115:0000000000001616
#03214:0013001300130013
#0321b:13131313
#03218:0013001300130013
#03216:00230023
#03212:2323
#0341b:1300001300000013
#03418:0013000016130000
#03412:00000013000000000000000016001300
#03415:00000000160000130000000000000000
#03518:0013000000260000
#03515:00000016160000000000000000001600
#0351b:00000013
#03512:0000000000261300
#0361b:1313000000000000
#03618:0000131313130000
#03615:00000000001300130013000000001600
#03612:00130013000000000000000013000000
#03718:13131300
#03715:1316131613000000
#03818:0013130013130013
#03812:16000016000016000016000016000016
#0381b:2300002300002300
#03918:0013261326130000
#03912:0000160000160000160000162c000000
#0391b:23
#04019:0012001200000000
#04016:2200120000120000
#0401c:2212
#04015:0000000000000012
#04018:00000022
#04012:00000022
#04010:41
#04316:00130013001300130000000000000000
#0431b:2313131313000012
#04318:00000000000000000013000000120000
#04315:0000000000130000
#04312:00000000000000000000001300000000
#04317:00000000000000000000000000000012
#0431c:00000022
#04715:000000000000000000000000160000160000160000160000160000160000160000160000160000001600000016000000
#04717:000000000000000000000000000000000000000000000000000000160000000000000000000000160000000000000000000000160000000000000000000000160000000000000000000000001600000000000000000000000000000016000000
#04713:0000000000000000000000160000001600000016000000160000000016000000
#04716:141800000000000000000000
#04712:002414000000000000000000
#0331b:13
#03318:0013001300000000
#03315:0013
#03312:2326290000222222
#03316:00000000000000000000002200220000
#04112:1200001200000000
#04115:0012000000000000
#04118:00120000
#04119:0000000000120012
#04116:00002212
#0411c:0022
#0421c:12
#04216:0012000000000000
#04215:0000001200120000
#04212:0000220012000012
#04218:00220012
#04917:00160000000012000000120000001200
#04914:00001212
#04915:1616000000000000
#04913:00000016000000000000000000000000
#0491f:00110000
#0501a:12001212
#0501b:00120000
#05013:00120000
#05017:0012001200120012
#05114:1212
#0511b:00120000
#05113:00120000
#05117:0012001200120012
#0511a:00000012
#05214:12000012
#0521b:00120000
#05213:00120000
#05217:0012001200120000
#0521a:0012
#05219:0000000000000022
#05215:00000000000000000000000000000022
#0441a:12
#04416:00120000000000002200000000000000
#04419:0012000000000012
#04415:00000012000000000000000000000012
#04418:00120012
#04414:00000000001200000000000000120000
#04417:0000001200120000
#04413:00000000000000120000001200000000
#04412:00000000000000000012000000000000
#0451a:12
#04516:00120000000000000000000000000000
#0451b:0012000013000000
#04517:00000012000000000000000000000000
#04512:0000002c132c002c002c002c
#04515:000013
#04518:000000000013
#0531b:0000130000001313
#05315:00220000001300001600001300160013
#05318:0000001300130000
#05312:00000000000000130013000000000000
#05319:2222000000000000
#05418:13000000130000130000130000001300
#05415:00001600001300000013000013000013
#05412:00130013000000000000001300130000
#0541b:0000001313000000
#05518:00130000000000000000000000000000
#0551b:1313230000230000
#05515:00000013000000000000000000000000
#05517:0012
#05512:0000230000230000
#05713:0000001200000000
#05717:00121222
#0571b:13131313000000000000120000000000
#05716:0018001800000000000000000000000000000000000000000000000000000000
#05718:0000000000160000000000000000000000000000000000000000000000000000
#05719:0000000000000015000000000000000000000000000000000000000000000000
#05617:1200001200000000
#05619:00120000
#05615:0012
#0561b:00002300000000000000230000002313
#05614:00000000000000000000000000000000000000000000000000000000001a001a
#05612:0023000000230023
#0591b:0013
#05912:00001316130000001300000000000000
#05918:0000002300001313
#05915:00000000000023000000000000130013
#05910:00410000
#0671b:0013
#06712:00001c1c1c0000001300000016001600
#06718:00000000000023000000000000160016
#06715:0000002300000000
#05818:00001300000013000000001600160000
#05815:00000013000000130000000000000000
#0581b:2300130013131313
#05812:23131300
#0581f:21
#0601b:1300130000000013
#06012:00130000000000000000000013001300
#06018:0013001616000000
#06015:00000013000000001300190019000000
#06118:1616160000000000
#06115:00130013000000000000000000000000
#06117:0000000000220000
#06114:00000000000000000000002200000000
#06119:00000022
#06116:00000000000000000000000000220000
#0611b:0000000000000022
#06212:1414000016000016
#06216:00140014140014000000000000000000
#0621a:00000000001400140000000000000000
#06215:0000000000130000
#06218:0000000000131616
#06318:1416160013260000
#06315:00000013000000001300000000000000
#0631b:0000000000001313
#06312:0000002600001313
#06412:13000000000000131300000000000013
#06418:00130000000013000013000000001300
#06415:00001300001300000000130000130000
#0641b:00000013130000000000001313000000
#06512:1313
#06518:000000000000130000000000000000000000000000000000000000000000000000000000000000000000000000000000000000000000000000001300000013000013000013000000000000000000000000000000000000000000000000000000
#06513:0013000000000000
#06519:000000000000000000000000000000000000130000000000000000000000000000000000000000000000000000000000000000000000000000000000000000000000001300130013000000000000000000000000000000000000000000000000
#06514:000000000000000000000000000000000000000000000000130000000000000000000000000000000000000000000000001300001300000013000000000000000000000000000000000000000000000000000000000000000000000000000000
#0651a:000000000000000000000000000000130000000000000000000000000000000000130013000000000000000000000000
#06515:000000000000000000000000000000000000000000000000000000000000000000000000130000000000000000000000000000130013001300000000000000000000000000000000000000000000000000000000000000000000000000000000
#0651b:00000000000000130000000000000000
#06516:000000000000000000000000000000000000000000000000000000000000000000000000000000000000000000000000000013000000130000130000130000001300000000000000000000000000000000000000000000000000000000000000
#06517:000000000000000000000000000000000000000000000000000000000000000000000000000000000000000000000000000000000000000000000013001300130000000000000000000000000000000000000000000000000000000000000000
#06615:13130000
#06618:13130000
#06616:0024
#06614:0000000000280000
#06612:0000000000002c2c
#06813:00000000000000001212121200000000
#06814:0000000000000000000000000000000000120000001200000000000000000000
#06812:1600000000000000000000000000000000000012000000120000000013000000
#0681b:00000000000013001212121200001300
#0681a:0000000000000000000000000000000000120000001200000000000000000000
#0681c:0000000000000000000000000000000000000012000000120000000000000000
#06815:00001316130000160000000000000000
#06912:1300130000222222
#0691b:0013130000000000
#06915:00160016000013000000000000000000
#06918:0000001300000000
#0691c:00000000000000000000002200220000
#07018:13000000000000000000000000130000
#07015:00001313160000000000000000001300
#07012:00000000000013131900000013000000
#0701b:00000000000000000000131300000000
#0711b:13
#07116:0016
#07115:0000000000001616
#07118:0026262600260000
#07112:00000026000026000000000000000000
#0721b:13330033000000001333003300000000
#07216:0013000000000000
#07212:13000000133300330000000013330033
#07217:0000001300000000
#07215:0000000000130000
#07218:0000000000000013
#08016:0012001200000000
#08018:0000120000260026
#08014:2212
#0801b:121212121212000000000000
#0801c:001200000012000000120000000000000000000000000000
#0801a:000000120000001200000012000000000000000000000000
#08012:0000000000220000
#08116:00000000120000000000000000000012
#08114:00000000000000001212121212120000
#08113:0000000000000000000000000000000000120000001200000012000000000000
#08115:0000000000000000000000000000000000000012000000120000001200000000
#0811c:0000000012000012
#0811a:00000032000000000000120000000000
#08118:0000001200001200
#07418:0013130013130013
#07415:00000013000000000013000000000013
#0741b:2300002300002300
#07412:0000002300002300
#07410:41
#07518:1300131300000000
#07515:00000000001300000000000000000000
#07516:0000000000130000
#0751b:0023000023002300
#07512:00002300000000002333003300000000
#07615:00001616160000001616160000001616
#0761a:2400002400002400
#07612:2400002400002400
#07715:16000000161616000000000000000000
#07716:00000000000000000014141400000000
#0771a:0024000024002400
#07712:0024000024002400
#07812:26001c1c1c0026001c1c1c0026001c1c
#07818:2600002600002600
#07912:1c0026001c1c1c002c00000000000000
#07918:0026000000000000
#0821a:12000000000000000000001200000000
#08214:00120000000000001200000000000000
#08218:00001200000000000012000000000000
#08212:00000012000022000000000000000000
#0821c:00120000
#08216:00000000000000120000120000000000
#08217:00000000000000000000000000120000
#08215:0000000000000012
#08219:00000000000000000000000000000012
#08213:00000022
#08317:12
#0831b:00120000000000000000000000000000
#08318:00000012000012000000000000000000
#08316:00120000
#0831a:00000000001200000000000000000000
#0831c:00000000000000120000000000000000
#08314:0022000000000000
#08312:000000242424
#0261b:00130013
#02615:00000000001300000000000000130000
#02618:0000001300000013
#02612:00000000000000130000000000000013
#02712:00130013
#02718:00000000001300000000000000130000
#02715:0000001300000013
#0271b:00000000000000130000000000000013
#0461a:000000001414000000001414
#04616:000000000000141800000000
#04612:132c002c00280024142c0028
#0461b:001300000000
#04815:160016001600160000160000160000160000160000160000
#04813:000016000000000000001600000000000000000000160000000000000000000000160000000000000000000000160000
#04817:00001600001600000016000000160000
#0851a:00000024
#08512:240024002400000000240000
#08412:242424242424
#0015a:00000000000000005252525252520000
#0015b:0000000000000000000000000000000000220000002200000022000000000000
#00159:0000000000000000000000000000000000000022000000220000002200000000
#00152:00320000
#00053:625252525252000000000000
#00052:002200000022000000220000000000160000000000160000
#00054:000000220000002200000022000000000000000000000000
#00955:0056
#0095b:00000013
#00752:3c4c3c4c
#00852:3c
#0105a:00140000
#01052:0000000000140000
#01152:00130000
#0115b:13
#01252:1c13000013190000
#0125b:0013000013000000
#01355:19
#0135b:0013000013000000
#01352:0013000013190000
#0215c:0052
#02157:00000000000000000022000000000000
#02159:0000000000520000
#0215b:00000000000000000000002200000000
#02156:00000032
#02152:00000032
#01757:00000052
#01756:12120000
#01758:0012000000000000
#01753:0000000000120000
#0175b:0000000000120000
#0145b:0013000013000000
#01452:0013000013190000
#01455:19
#01652:1913000013000000
#0165b:0013000013000000
#01658:0000000000000012
#01655:0000000000190000
#02252:0000000000000053
#0245b:3333
#02457:00430043
#02452:5326532653265326
#0255b:43
#02558:0046000000000000
#02555:00490000
#02552:5326000000000000
#0255c:0000000000000042
#02952:0023
#02954:000000000000000000000000000000000000000000000000000000000000000000000000000000000000000000000000005300002300000023000000000000000000000000000000000000000000000000000000000000000000000000000000
#02956:000000000000000000000000000000000000000000000000000000000000000000000000000000000000000000000000000023000000230000530000230000002300000000000000000000000000000000000000000000000000000000000000
#02955:000000000000000000000000000000000000000000000000000000000000000000000000000000000000000000000000000000530053005300000000000000000000000000000000000000000000000000000000000000000000000000000000
#02958:000000000000000000000000000000000000000000000000000000000000000000000000000000000000000000000000000000000000000000002300000023000053000023000000000000000000000000000000000000000000000000000000
#02957:000000000000000000000000000000000000000000000000000000000000000000000000000000000000000000000000000000000000000000000053005300530000000000000000000000000000000000000000000000000000000000000000
#0295a:000000000000000000000000000000000000000000000000000000000000000000230023000000000000000000000000
#02959:000000000000000000000000000000000000000000000000000000000000000000000000000000000000000000000000000000000000000000000000000000000000005300530023000000000000000000000000000000000000000000000000
#0295b:00000043
#0305b:0000000000000053
#03052:0000000000000053
#0315b:0000005300130000
#03156:0000005300000000
#03152:0000000000130000
#03658:0000000000530000
#03758:1353
#03755:00135300
#03752:00000013
#0375b:00000013
#04755:000000000000000000000000560000560000560000560000560000560000560000560000560000005600000056000000
#04757:000000000000000000000000000000000000000000000000000000260000000000000000000000260000000000000000000000260000000000000000000000260000000000000000000000002600000000000000000000000000000026000000
#04753:0000000000000000000000260000002600000026000000260000000026000000
#02352:0000005c00000000
#02358:26
#0325b:53535353
#03258:0023002300230023
#03256:00330033
#03252:4343
#0335b:53
#03358:0023000000000000
#03352:3336390000000032
#03452:0000000000000053
#0505b:00420000
#05053:00320000
#0515b:00420000
#05153:00320000
#0525b:00420000
#05253:00320000
#05753:0000002200000000
#05757:00525232
#0575b:53535353130000000000220000000000
#05756:0028002800000000000000000000000000000000000000000000000000000000
#05758:0000000000260000000000000000000000000000000000000000000000000000
#05759:0000000000000025000000000000000000000000000000000000000000000000
#0565b:00000000000000000000000000005353
#05654:00000000000000000000000000000000000000000000000000000000002a002a
#0595b:0023
#05952:0023
#05958:0000005300330000
#05955:0000006300430000
#0675b:0023
#06752:0023
#06758:0000005300330000
#06755:0000006300430000
#0585b:0000000000000053
#0605b:13130000
#06058:0016
#06055:00000019
#06158:00560000
#06157:0000000000420000
#06154:00000000000000000000003200000000
#06159:00000042
#06156:00000000000000000000000000320000
#0615b:0000000000000042
#06252:0000000000000056
#06358:2400000000460000
#06352:0000003600000000
#06552:0023
#06554:000000000000000000000000000000000000000000000000000000000000000000000000000000000000000000000000005300002300000023000000000000000000000000000000000000000000000000000000000000000000000000000000
#06556:000000000000000000000000000000000000000000000000000000000000000000000000000000000000000000000000000023000000230000530000230000002300000000000000000000000000000000000000000000000000000000000000
#06555:000000000000000000000000000000000000000000000000000000000000000000000000000000000000000000000000000000530053005300000000000000000000000000000000000000000000000000000000000000000000000000000000
#06558:000000000000000000000000000000000000000000000000000000000000000000000000000000000000000000000000000000000000000000002300000023000053000023000000000000000000000000000000000000000000000000000000
#06557:000000000000000000000000000000000000000000000000000000000000000000000000000000000000000000000000000000000000000000000053005300530000000000000000000000000000000000000000000000000000000000000000
#0655a:000000000000000000000000000000000000000000000000000000000000000000230023000000000000000000000000
#06559:000000000000000000000000000000000000000000000000000000000000000000000000000000000000000000000000000000000000000000000000000000000000005300530023000000000000000000000000000000000000000000000000
#0655b:00000043
#06655:53530000
#06658:53530000
#06656:0014
#06654:0000000000180000
#06652:0043004300001c00
#0665b:0033003300000000
#06853:00000000000000005252525212000000
#06854:0000000000000000000000000000000000220000002200000000000000000000
#06852:1600000000000000000000000000000000000022000000220000000000000000
#0685b:00000000000000006262626212000000
#0685a:0000000000000000000000000000000000220000002200000000000000000000
#0685c:0000000000000000000000000000000000000022000000220000000000000000
#06855:00130000
#06952:0000530000323232
#06955:0000002300000000
#0695b:00630000
#06958:0000002300000000
#0695c:00000000000000000000004200420000
#07055:0000000000000053
#07156:0026
#07152:0000005600360000
#07158:0000000000460000
#0725b:5353
#07256:0023000000000000
#07252:00630063
#07257:0000002300000000
#07255:0000000000230000
#07258:0000000000000023
#08154:00000000000000006262626262620000
#08153:0000000000000000000000000000000000220000002200000022000000000000
#08155:0000000000000000000000000000000000000022000000220000002200000000
#0815c:00420000
#0805b:526262626262000000000000
#0805c:002200000022000000220000000000000000000000000000
#0805a:000000220000002200000022000000000000000000000000
#08058:0000000000160016
#07556:0000000000230000
#0755b:00000043
#07552:00005333
#07852:00001c00001c0000
#07952:1c00001c001c0000
#04855:660066006600560000560000560000560000560000560000
#04853:000026000000000000002600000000000000000000260000000000000000000000260000000000000000000000260000
#04857:00002600002600000026000000260000
#04955:5656000000000000
#04957:00260000000000000000000000000000
#04953:00000026000000000000000000000000
#00458:0044
#00454:00000000000000000034000000000000
#0045a:0000000000440000
#00452:00000000000000000000003400000000
#00652:1c1c1c1c1c0000000000000000000000
#01552:36383a3c
#0395b:13
#03958:00161600
#03952:0000001c
#03558:0000000000460000
#03552:0000000000360000
#0855a:00000044
#08552:00000034
#0775a:00000044
#07752:00000034
#000330:125252525252220000000000
#000320:005200000052000000520000000000000000000000000000
#000340:000000520000005200000052000000000000000000000000
#0003a0:0000000000000012
#0013a0:0022000000000000
#001361:0012000000000000
#001341:00000032000000000000000000000000
#001321:00220000
#0013a1:00000000000012003252525252522200
#0013b1:0000000000000000000000000000000000520000005200000052000000000000
#001391:0000000000000000000000000000000000000052000000520000005200000000
#005371:0000000000000000000000000000000000000000130000530000000000000000
#0053b1:0000000000000000000000000000000000000000000000000053000023000000
#005320:0000000000000000000000000000000000000000130000530000000000000000
#005360:0000000000000000000000000000000000000000000000000053000023000000
#008320:000000000000000000000000000000000000000000000000000000000000000000000000000000000000000000000000000000000000000000000000000000000000000000000000000000000000000000000000000000000000000000000000000000000000000000000000000000000000000000000000000000000000000000000000000000000000000000000000000000000000000000000000000000000000000000000000000000000000000000000000000000000000000000000000000000000000000000000000000000000000000000000000000000000000000000000000000000000000000000000000130000000000000000000000000000000000000000000000000000000000000000000000000000000000000000000000000000000000000000000000000000000000000000000000000000000000000000000000000000000000000000000000000000000000000000000000000000000000000000000000000000000000000000000000000000000000000000000000000000000000000000000000000000000000000000000000000000000000000000000053590000000000000000000000000000000000000000000000000000000000000000000000000000000000000000000000000000000000000000000000000000000000000000000000000000000000000000000000000000000000000000000000000000000000000000000000000000000000000000000000590000000000000000000000000000000000000000000000000000000000000000000000000000000000000000000000000000000000000000000000000000000000000000000000000000000000000000000000000000000000000000000000000000000000000000000000000000000000000000000000000000000000000000000000000000000000000000000000000000000000000000000000000000000000000000000000000000000000000000000000000000000000000000000000000000000000000000000000000000000000000000000000000000000000000000000000000000000000000000000000000000000000000000000000000000000000000000000000000000000000000000000000000000000000000000000000000000000000000000000000000000000000000000000000000000000000000000000000000000000000000000000000000000000000000000000000000000000000000000000000000000000000000000000000000000000000000000000000000000000000000000000000000000000000000000000000000000000000000000000000000000000000000000000000000000000000000000000000000000000000000000000000000000000000000000000000000000000000000000000000000000000000000000000000000000000000000000000000000000000000000000000000000000000000000000000000000000000000000000000000000000000000000000000000000000000000000000000000000000000000000000000000000000000000000000000000000000000000000000000000590000000000000000000000000000000000000000000000000000000000000000000000000000000000000000000000000000000000000000000000000000000000000000000000000000000000000000000000000000000000000000000000000000000000000000000000000000000000000000000000595300000000000000000000000000000000000000000000000000000000000000000000000000000000000000000000000000000000000000000000000000000000000000000000000000000000000000000000000000000000000000000000000000000000000000000000000000000000000000000053590000000000000000000000000000000000000000000000000000000000000000000000000000000000000000000000000000000000000000000000000000000000000000000000000000000000000000000000000000000000000000000000000000000000000000000000000000000000000000000000590000000000000000000000000000000000000000000000000000000000000000000000000000000000000000000000000000000000000000000000000000000000000000000000000000000000000000000000000000000000000000000000000000000000000000000000000000000000000000000000000000000000000000000000000000000000000000000000000000000000000000000000000000000000000000000000000000000000000000000000000000000000000000000000000000000000000000000000000000000000000000000000000000000000000000000000000000000000000000000000000000000000000000000000000000000000000000000000000000000000000000000000000000000000000000000000000000000000000000000000000000000000000000000000000000000000000000000000000000000000000000000000000000000000000000000000000000000000000000000000000000000000000000000000000000000000000000000000000000000000000000000000000000000000000000000000000000000000000000000000
#008380:000000000000000000000000000000000000000000000000000000000000000000000000000000000000000000000000000000000000000000000000000000000000000000000000000000000000000000000000000000000000000000000000000000000000000000000000000000000000000000000000000000000000000000000000000000000000000000000000000000000000000000000000000000000000000000000000000000000000000000000000000000000000000000000000000000000000000000000000000000000000000000000000000000000000000000000000000000000000000000000000000000000000000000000000000000000000000000000000000000000000000000000000000000000000000000000000000000000000000000000000000000000000000000000000000000000000000000000000000000000000000000000000000000000000000000000000000000000000000000000000000000000000000000000000000000000000000000000000000000000000000000000000000000000000000000000000000000000000000000000000000000000000000000000000000000000000000000000000000000000000000000000000000000000000000000000000000000000000000000000000000000000000000000000000000000000000000000000000000000000000000000000000000000000000000000000000000000000000000000000000005300000000000000000000000000000000000000000000000000000000000000000000000000000000000000000000000000000000000000000000000000000000000000000000000000000000000000000000000000000000000000000000000000000000000000000000000000000000000000000000000000000000000000000000000000000000000000000000000000000000000000000000000000000000000000000000000000000000000000000000330000000000000000000000000000000000000000000000000000000000000000000000000000000000000000000000000000000000000000000000000000000000000000000000000000000000000000000000000000000000000000000000000000000000000000000000000000000000000000000000000000000000000000000000000000000000000000000000000000000000000000000000000000000000000000000000000000000000000000000000000000000000000000000000000000000000000000000000000000000000000000000000000000000000000000000000000000000000000000000000330000000000000000000000000000000000000000000000000000000000000000000000000000000000000000000000000000000000000000000000000000000000000000000000000000000000000000000000000000000000000000000000000000000000000000000000000000000000000000000000000000000000000000000000000000000000000000000000000000000000000000000000000000000000000000000000000000000000000000000053000000000000000000000000000000000000000000000000000000000000000000000000000000000000000000000000000000000000000000000000000000000000000000000000000000000000000000000000000000000000000000000000000000000000000000000000000000000000000000000000000000000000000000000000000000000000000000000000000000000000000000000000000000000000000000000000000000000000000000000000000000000000000000000000000000000000000000000000000000000000000000000000000000000000000000000000000000000000000000000000000000000000000000000000000000000000000000000000000000000000000000000000000000000000000000000000000000000000000000000000000000000000000000000000000000000000000000000000000000000000000000000000000000000000000000000000000000000000000000000000005300000000000000000000000000000000000000000000000000000000000000000000000000000000000000000000000000000000000000000000000000000000000000000000000000000000000000000000000000000000000000000000000000000000000000000000000000000000000000000000000000000000000000000000000000000000000000000000000000000000000000000000000000000000000000000000000000000000000000000000330000000000000000000000000000000000000000000000000000000000000000000000000000000000000000000000000000000000000000000000000000000000000000000000000000000000000000000000000000000000000000000000000000000000000000000000000000000000000000000000000000000000000000000000000000000000000000000000000000000000000000000000000000000000000000000000000000000000000000000000000000000000000000000000000000000000000000000000000000000000000000000000000000000000000000000000000000000000000000000000
#009380:23
#008351:000000000000000000000000000000000000000000000000000000000000000000000000000000000000000000000000000000000000000000000000000000000000000000000000000000000000000000000000000000000000000000000000000000000000000000000000000000000000000000000000000000000000000000000000000000000000000000000000000000000000000000000000000000000000000000000000000000000000000000000000000000000000000000000000000000000000000000000000000000000000000000000000000000000000000000000000000000000000000000000000130000000000000000000000000000000000000000000000000000000000000000000000000000000000000000000000000000000000000000000000000000000000000000000000000000000000000000000000000000000000000000000000000000000000000000000000000000000000000000000000000000000000000000000000000000000000000000000000000000000000000000000000000000000000000000000000000000000000000000000000000000000000000000000000000000000000000000000000000000000000000000000000000000000000000000000000000000000000000000000000330000000000000000000000000000000000000000000000000000000000000000000000000000000000000000000000000000000000000000000000000000000000000000000000000000000000000000000000000000000000000000000000000000000000000000000000000000000000000000000000000000000000000000000000000000000000000000000000000000000000000000000000000000000000000000000000000000000000000000000053590000000000000000000000000000000000000000000000000000000000000000000000000000000000000000000000000000000000000000000000000000000000000000000000000000000000000000000000000000000000000000000000000000000000000000000000000000000000000000000000590000000000000000000000000000000000000000000000000000000000000000000000000000000000000000000000000000000000000000000000000000000000000000000000000000000000000000000000000000000000000000000000000000000000000000000000000000000000000000000000590000000000000000000000000000000000000000000000000000000000000000000000000000000000000000000000000000000000000000000000000000000000000000000000000000000000000000000000000000000000000000000000000000000000000000000000000000000000000000000000595300000000000000000000000000000000000000000000000000000000000000000000000000000000000000000000000000000000000000000000000000000000000000000000000000000000000000000000000000000000000000000000000000000000000000000000000000000000000000000000000000000000000000000000000000000000000000000000000000000000000000000000000000000000000000000000000000000000000000000000330000000000000000000000000000000000000000000000000000000000000000000000000000000000000000000000000000000000000000000000000000000000000000000000000000000000000000000000000000000000000000000000000000000000000000000000000000000000000000000000000000000000000000000000000000000000000000000000000000000000000000000000000000000000000000000000000000000000000000000000000000000000000000000000000000000000000000000000000000000000000000000000000000000000000000000000000000000000000000000000330000000000000000000000000000000000000000000000000000000000000000000000000000000000000000000000000000000000000000000000000000000000000000000000000000000000000000000000000000000000000000000000000000000000000000000000000000000000000000000000000000000000000000000000000000000000000000000000000000000000000000000000000000000000000000000000000000000000000000000053590000000000000000000000000000000000000000000000000000000000000000000000000000000000000000000000000000000000000000000000000000000000000000000000000000000000000000000000000000000000000000000000000000000000000000000000000000000000000000000000590000000000000000000000000000000000000000000000000000000000000000000000000000000000000000000000000000000000000000000000000000000000000000000000000000000000000000000000000000000000000000000000000000000000000000000000000000000000000000000000000000000000000000000000000000000000000000000000000000000000000000000000000000000000000000000000000000000000000000000000
#0083b1:000000000000000000000000000000000000000000000000000000000000000000000000000000000000000000000000000000000000000000000000000000000000000000000000000000000000000000000000000000000000000000000000000000000000000000000000000000000000000000000000000000000000000000000000000000000000000000000000000000000000000000000000000000000000000000000000000000000000000000000000000000000000000000000000000000000000000000000000000000000000000000000000000000000000000000000000000000000000000000000000000000000000000000000000000000000000000000000000000000000000000000000000000000000000000000000000000000000000000000000000000000000000000000000000000000000000000000000000000000000000000000000000000000000000000000000000000000000000000000000000000000000000000000000000000000000000000000000000000000000000000000000000000000000000000000000000000000000000000000000000000000000000000000000000000000000000000000000000000000000000000000000000000000000000000000000000000000000000000000000000000000000000000000000000000000000000000000000000000000000000000000000000000000000000000000000000000000000000000000000000000000000000000000000000000000000000000000000000000000000000000000000000000000000000000000000000000000000000000000000000000000000000000000000000000000000000000000000000000000000000000000000000000000000000000000000000000000000000000000000000000000000000000000000000000000000000000000000000000000000000000000000000000000000000000000000000000000000000000000000000000000000000000000000000000000000000000000000000000000000000000000000000000000000000000000000000000000000000000000000000005300000000000000000000000000000000000000000000000000000000000000000000000000000000000000000000000000000000000000000000000000000000000000000000000000000000000000000000000000000000000000000000000000000000000000000000000000000000000000005300000000000000000000000000000000000000000000000000000000000000000000000000000000000000000000000000000000000000000000000000000000000000000000000000000000000000000000000000000000000000000000000000000000000000000000000000000000000000000000000000000000000000000000000000000000000000000000000000000000000000000000000000000000000000000000000000000000000000000000000000000000000000000000000000000000000000000000000000000000000000000000000000000000000000000000000000000000000000000000000000000000000000000000000000000000000000000000000000000000000000000000000000000000000000000000000000000000000000000000000000000000000000000000000000000000000000000000000000000000000000000000000000000000000000000000000000000000000000000000000000000000000000000000000000000000000000000000000000000000000000000000000000000000000000000000000000000000000000000000000000000000000000000000000000000000000000000000000000000000000000000000000000000000000000000000000000000000000000000000000000000000000000000000000000000000000000000000000000000000000000000000000000000000000000000000000000000000000000000000000000000000000000000000000000000000000000000000000000000000000000000000000000000000000000000000000000000000000000000000000000000000000000000000000000000000000000000000000000000000000000000000000000000000000000000000000000000000000000000000000000000000000000000000000000000000000000000000000000000000000000000000000000000000000000000000000000000000000000000000000000000000000000000000000000000000000000000000000000000000000000000000000000000000000000000000000000000000000000000000000000000000000000000000000000000000000000000000000000000000000000000000000000000000000000000000000000000000000000000000000000005300000000000000000000000000000000000000000000000000000000000000000000000000000000000000000000000000000000000000000000000000000000000000000000000000000000000000000000000000000000000000000000000000000000000000000000000000000000000000000000000000000000000000000000000000000000000000000000000000000000000000000000000000000000000000000000000000000000000000000000
#0093b1:23
#009351:0016
#0093b1:00000023
#013321:1323000000000000
#014321:1323000000000000
#0163b1:1323000000000000
#0173a1:0000001400000000
#0173b1:0000000000220000
#017320:0014
#017330:0000000000220000
#017370:00000012
#018320:22
#0213c0:0012
#021370:00000000000000000052000000000000
#021390:0000000000520000
#0213b0:00000000000000000000005200000000
#021360:00000022
#022380:1626000000000000
#022320:0000162600000000
#022320:0000000000000013
#023380:56
#023320:0023000000000000
#023320:0000001c00230000
#024320:1356335633563356
#025320:3356230000000000
#0263b0:13
#026380:00230000000000000000000000000000
#026350:0013000000000000
#026320:00000023000000000000000000000000
#0263b0:0013
#026380:00000000000000000023000000000000
#026350:0000000000130000
#026320:00000000000000000000002300000000
#027320:13
#027350:00230000000000000000000000000000
#027380:0013000000000000
#0273b0:00000023000000000000000000000000
#027320:0013
#027350:00000000000000000023000000000000
#027380:0000000000130000
#0273b0:00000000000000000000002300000000
#028320:12220000000000000000000000000000
#028361:00122200000000000000000000000000
#028340:00001222000000000000000000000000
#028381:00000012220000000000000000000000
#028360:00000000122200000000000000000000
#0283a1:00000000001222000000000000000000
#028380:00000000000012220000000000000000
#0283c1:00000000000000122200000000000000
#028320:00000000000000001222000000000000
#028361:00000000000000000012220000000000
#028340:00000000000000000000122200000000
#028381:00000000000000000000001222000000
#028360:00000000000000000000000012220000
#0283a1:00000000000000000000000000122200
#028380:00000000000000000000000000001222
#0283c1:00000000000000000000000000000012
#0293c1:22
#029320:12220000000000000000000000000000
#029361:00122200000000000000000000000000
#029340:00001222000000000000000000000000
#029381:00000012220000000000000000000000
#029360:00000000122200000000000000000000
#0293a1:00000000001222000000000000000000
#029380:00000000000012220000000000000000
#0293c1:00000000000000122200000000000000
#029320:0013
#029340:000000000000000000000000000000000000000000000000000000000000000000000000000000000000000000000000005300005300000053000000000000000000000000000000000000000000000000000000000000000000000000000000
#029360:000000000000000000000000000000000000000000000000000000000000000000000000000000000000000000000000000053000000530000530000530000005300000000000000000000000000000000000000000000000000000000000000
#029350:000000000000000000000000000000000000000000000000000000000000000000000000000000000000000000000000000000530053005300000000000000000000000000000000000000000000000000000000000000000000000000000000
#029380:000000000000000000000000000000000000000000000000000000000000000000000000000000000000000000000000000000000000000000005300000053000053000053000000000000000000000000000000000000000000000000000000
#029370:000000000000000000000000000000000000000000000000000000000000000000000000000000000000000000000000000000000000000000000053005300530000000000000000000000000000000000000000000000000000000000000000
#0293a0:000000000000000000000000000000000000000000000000000000000000000000530053000000000000000000000000
#029390:000000000000000000000000000000000000000000000000000000000000000000000000000000000000000000000000000000000000000000000000000000000000005300530053000000000000000000000000000000000000000000000000
#0293b0:00000023
#030320:13230000000000000000000000000000
#030350:00001323000000000000000000000000
#030350:00000000000013230000000000000000
#0303b0:0000000000000013
#031320:0023000000000000
#030321:0000000000000013
#031371:0023000000000000
#031361:0000001300000000
#0313b1:0000000000230000
#0313b0:0000001300000000
#031320:0000000000230000
#0313b0:0000000000000013
#0323b0:33333333
#032380:0053005300530053
#0333b0:33230000
#033380:0053000000000000
#034320:0000000000000013
#035350:0023000000000000
#035320:0000001600260000
#035381:0000001600260000
#036381:0000000000130000
#0363b1:00000023
#037351:0013
#037321:00000023
#037380:0013
#0373b0:00000023
#047350:000000000000000000000000160000560000560000560000560000560000560000560000560000005600000056000000
#047370:000000000000000000000000000000000000000000000000000000560000000000000000000000560000000000000000000000560000000000000000000000560000000000000000000000005600000000000000000000000000000056000000
#047330:0000000000000000000000560000005600000056000000560000000056000000
#048350:560056005600560000560000560000560000560000560000
#048330:000056000000000000005600000000000000000000560000000000000000000000560000000000000000000000560000
#048370:00005600005600000056000000560000
#049350:5656260000000000
#049370:00560000000000000000000000000000
#049330:00000056000000000000000000000000
#0563b0:00000000000000000000000000001353
#056340:00000000000000000000000000000000000000000000000000000000005a005a
#0573b0:53535353230000000000000000000000
#057360:0058005800000000000000000000000000000000000000000000000000000000
#057380:0000000000560000000000000000000000000000000000000000000000000000
#057390:0000000000000055000000000000000000000000000000000000000000000000
#057371:00125222
#057331:0000005200000000
#0573b1:0000000000520000
#0583b1:0000000000000013
#059351:0023000000000000
#059381:0000001300230000
#0593b1:0053
#059350:0000001300230000
#059320:0053
#061380:00160000
#061320:0026
#062320:0000000000000016
#063380:54
#063320:0026000000000000
#065320:0013
#065340:000000000000000000000000000000000000000000000000000000000000000000000000000000000000000000000000005300005300000053000000000000000000000000000000000000000000000000000000000000000000000000000000
#065360:000000000000000000000000000000000000000000000000000000000000000000000000000000000000000000000000000053000000530000530000530000005300000000000000000000000000000000000000000000000000000000000000
#065350:000000000000000000000000000000000000000000000000000000000000000000000000000000000000000000000000000000530053005300000000000000000000000000000000000000000000000000000000000000000000000000000000
#065380:000000000000000000000000000000000000000000000000000000000000000000000000000000000000000000000000000000000000000000005300000053000053000053000000000000000000000000000000000000000000000000000000
#065370:000000000000000000000000000000000000000000000000000000000000000000000000000000000000000000000000000000000000000000000053005300530000000000000000000000000000000000000000000000000000000000000000
#0653a0:000000000000000000000000000000000000000000000000000000000000000000530053000000000000000000000000
#065390:000000000000000000000000000000000000000000000000000000000000000000000000000000000000000000000000000000000000000000000000000000000000005300530053000000000000000000000000000000000000000000000000
#0653b0:00000023
#066350:13
#066320:0023000000000000
#066381:13
#0663b1:0023000000000000
#066351:00130000
#066321:0000002300000000
#066380:00130000
#0663b0:0000002300000000
#066320:000000000000001c
#067320:2c
#067380:0000001300230000
#0673b0:0053
#067351:0000001300230000
#067321:0053
#068331:00000000000000001252525222000000
#068341:0000000000000000000000000000000000520000005200000000000000000000
#068321:0000000000000000000000000000000000000052000000520000000000000000
#0683b0:00000000000000001252525222000000
#0683a0:0000000000000000000000000000000000520000005200000000000000000000
#0683c0:0000000000000000000000000000000000000052000000520000000000000000
#069320:00132300
#069350:0000005300000000
#0693b1:00132300
#069381:0000005300000000
#070351:0000000000000013
#071321:23
#071321:0000001600260000
#071361:0056
#0723b1:13330033230000000000000000000000
#072361:0033000000000000
#072320:00000000133300332300000000000000
#072370:0000003300000000
#0723b1:00000000000000001333003323000000
#072351:0000000000330000
#072320:00000000000000000000000013330033
#072380:0000000000000033
#073320:23
#0733b1:13
#073391:00330000000000000000000000000000
#073371:0023000000000000
#073320:0013000000000000
#073340:00000033000000000000000000000000
#073360:00230000
#0733b1:00130000
#073391:00000000003300000000000000000000
#073371:0000002300000000
#073320:0000001300000000
#073340:00000000000000330000000000000000
#073360:0023
#0733b1:0013
#073381:00000000000000000023000000000000
#073320:00000000000000000013000000000000
#073350:0000000000230000
#0733b1:0000000000130000
#073381:00000000000000000000002300000000
#073320:00000000000000000000001300000000
#073350:00000023
#0733b1:00000013
#073381:00000000000000000000000000230000
#073320:00000000000000000000000000130000
#073350:0000000000000023
#0733b1:0000000000000013
#073381:00000000000000000000000000000023
#073320:00000000000000000000000000000013
#074350:23
#075320:00000000000000001333003323000000
#075360:0000000000330000
#079320:000000001c2c0000
#0803b0:125252525252220000000000
#0803c0:005200000052000000520000000000000000000000000000
#0803a0:000000520000005200000052000000000000000000000000
#080340:0000000000000012
#081340:0022000000000000
#081381:0012000000000000
#0813a1:00000032000000000000000000000000
#0813c1:00220000
#081341:00000000000012003252525252522200
#081331:0000000000000000000000000000000000520000005200000052000000000000
#081351:0000000000000000000000000000000000000052000000520000005200000000
#083321:0014
#083361:000000000000002400000000
#0833a0:000000000000001400000000
#083360:000024
#083321:000014
#083361:00000024
#0833a0:00000014
#083360:000000000024
#083321:000000000014
#083361:000000000000000000000024
#0833a0:000000000000000000000014
#084360:24
#084321:14
#084361:002400000000000000000000
#0843a0:001400000000000000000000
#084360:002400000000
#084321:001400000000
#084361:00240000
#0843a0:00140000
#084360:002400
#084321:001400
#084361:000000000024000000000000
#0843a0:000000000014000000000000
#084360:0024
#084321:0014
#084361:000000000000002400000000
#0843a0:000000000000001400000000
#084360:000024
#084321:000014
#084361:00000024
#0843a0:00000014
#084360:000000000024
#084321:000000000014
#084361:000000000000000000000024
#0843a0:000000000000000000000014
#085360:24
#085321:14
#085361:002400000000000000000000
#0853a0:001400000000000000000000
#085360:002400000000
#085321:001400000000
#085361:00240000
#0853a0:00140000
#085360:002400
