This file was generated by Ched 2.7.0.0.
#TITLE ""
#ARTIST ""
#DESIGNER ""
#DIFFICULTY 0
#PLAYLEVEL
#SONGID ""
#WAVE ""
#WAVEOFFSET 0
#JACKET ""
#REQUEST "ticks_per_beat 480"
#00002: 4
#BPM01: 172
#BPM02: 180
#BPM03: 160
#00008: 01
#04908: 00010000
#04008: 02
#08308: 0002
#04708: 00030000
#TIL00: ""
#HISPEED 00
#MEASUREHS 00
#00418:00140000
#00414:0014
#0041a:00000014
#00512:14
#00518:00140000
#00514:0014
#00614:00140000
#00618:0014
#00612:00000014
#0061a:14
#00610:41
#0071a:14
#00714:00140000
#00718:0014
#00712:00000014
#0121a:14
#01214:0014000000000000
#01212:0000000000140000
#01218:0014
#01818:1616
#01812:00160016
#01918:1414
#01914:00140014
#02218:00140000
#02214:0014
#0221a:00000014
#02212:24
#02210:41
#02312:14
#0231a:00140000
#02314:00001414
#0241a:1414
#02414:00140014
#02518:14140000
#02514:0014000000000000
#02614:00140000
#02618:0014
#02612:00000014
#0261a:14
#0271a:14
#02712:00140000
#02718:00001414
#02812:1414
#02818:00140014
#02914:14
#0291a:00140000
#03014:00140000
#03018:0014
#03012:00000014
#0301a:24
#03010:41
#0311a:14
#03112:00140000
#03118:00001414
#03212:1414
#03218:00140014
#03314:14140000
#03318:0014000000000000
#03418:00140000
#03414:0014
#0341a:00000014
#03412:14
#03512:14
#0351a:00140000
#03514:00001414
#0361a:1414
#03614:00140014
#03718:14
#03712:00140000
#03812:24140000
#03818:00002414
#03914:24140000
#0391a:00002414
#04312:1414
#04318:00140000
#0431a:00000014
#04414:14
#0441a:00140000
#04412:0014
#04418:00000014
#04512:14
#04518:00260000
#04918:00140014
#04914:0014
#0491f:00110000
#05014:1414
#05018:00140014
#05114:00140014
#05118:0014
#05218:1414
#05214:00140014
#0531a:00140014
#05312:0014
#05412:1414
#0541a:00140014
#05518:0000001400240014
#05514:00241414
#05614:1400002400000024
#05618:0024000000240000
#05814:00140000
#05818:0014
#05812:00000014
#0581a:24
#0581f:21
#0591a:14
#05912:00140000
#05919:00001414
#05913:00001414
#05910:00410000
#06012:1414
#06018:00140014
#06114:14140000
#06118:0014000000000000
#06218:00140000
#06214:0014
#0621a:00000014
#06212:14
#06312:14
#0631a:00140000
#06313:00001414
#06319:00001414
#0641a:1414
#06414:00140014
#06518:14
#06512:00140000
#06618:00140000
#06614:0014
#0661a:00000014
#06612:24
#06712:14
#0671a:00140000
#06719:00001414
#06713:00001414
#0681a:1414
#06814:00140014
#06918:14140000
#06914:0014000000000000
#07014:00140000
#07018:0014
#07012:00000014
#0701a:14
#0711a:14
#07112:00140000
#07119:00001414
#07113:00001414
#07212:1414
#07218:00140014
#07314:14
#0731a:00140000
#07414:00140014
#0741a:2424
#07410:41
#07512:00140000
#07518:2424
#07618:00140014
#07612:2424
#0771a:00140000
#07714:2424
#07818:26160000
#07812:00002616
#0131a:14
#01314:0014000000000000
#01312:0000000000140000
#01318:0014
#0141a:14
#01414:0014000000000000
#01412:0000000000140000
#01418:0014
#0161a:14
#01614:0014000000000000
#01612:0000000000140000
#01618:0014
#0171a:14
#01714:0014000000000000
#01712:0000000000140000
#01718:0014
#0001a:1434343434000000
#08012:1434343434000000
#04615:00000016
#04618:000000160036003600000036
#00114:0000000000000024
#00218:0000002600000000
#00212:00000026
#00318:0026000000000000
#00312:0026
#01518:2626
#01512:00260026
#02118:00000024
#07918:2626
#07912:00260000
#08118:0000000000000024
#08212:0000002600000000
#08218:00000026
#08312:0026000000000000
#08318:0026
#08512:00000026
#0081a:00343400
#00912:00343400
#01018:00343400
#01114:00343400
#04012:0034343400000000
#0401a:0000000000000034
#04010:41
#0411a:3434000000000000
#04112:0000000000343434
#0421a:0000003434340000
#04718:003600000000000000000000
#02558:00540000
#03354:00640000
#06154:00640000
#06958:00540000
#0005a:54
#08052:64
#04655:00000026
#04658:00560000
#02158:00000014
#05654:0000000000000014
#07958:0016
#08552:00000016
#0003a0:1434343434000000
#000380:0000000000240000
#000340:0000000000000014
#001340:0024000000000000
#001380:0000001400240000
#003320:000000163636
#004320:26
#0083a0:14343400
#008380:00000024
#009320:14343400
#009340:00000024
#010380:14343400
#0103a0:00000024
#011340:14343400
#011320:00000024
#020380:1434343434343434
#021380:3434343434002400
#025380:00140000
#0253a0:00000024
#029340:00001424
#033340:00140000
#033320:00000024
#037380:00001424
#040320:1434343400000000
#040340:0024
#0403a0:0000000000001434
#0413a0:3434000000000000
#041380:00240000
#041320:0000000014343434
#042340:24
#0423a0:0000143434340000
#042380:00000024
#045380:000000160036003600360036
#046380:003600360036003600000036
#046350:00000036
#047380:003600260000000000000000
#061340:00140000
#061320:00000024
#065380:00001424
#069380:00140000
#0693a0:00000024
#073340:00001424
#080320:1434343434000000
#080340:0000000000240000
#080380:0000000000000014
#081380:0024000000000000
#081340:0000001400240000
#083380:000000163636
#084380:363636363636
#085380:363626000000
