This file was generated by Ched 2.7.0.0.
#TITLE ""
#ARTIST ""
#DESIGNER ""
#DIFFICULTY 0
#PLAYLEVEL
#SONGID ""
#WAVE ""
#WAVEOFFSET 0
#JACKET ""
#REQUEST "ticks_per_beat 480"
#00002: 4
#BPM01: 185
#00008: 01
#TIL00: ""
#HISPEED 00
#MEASUREHS 00
#00119:14
#00213:14
#00319:14
#00413:14
#0051a:14
#00612:14
#0071a:14
#00812:14
#0091a:14
#00910:41
#0101a:14
#01114:14
#01214:14
#01718:14
#01818:14
#01912:14
#02012:14
#0251a:14
#02510:41
#02614:14
#02718:14
#02812:14
#03318:14
#03412:14
#0351a:14
#03614:14
#04112:0016
#04118:26
#04110:41
#04218:16
#04212:0016
#04518:1616
#04612:1616
#04912:0016
#05018:16
#05012:0016
#05118:16
#05112:0016
#0581a:14
#05912:14
#06018:14
#06114:14
#0621a:14
#06312:14
#06418:14
#07314:14
#0731f:11
#07418:14
#07514:14
#07618:14
#08118:0016
#08112:26
#0811f:21
#08212:16
#08218:0016
#08512:1616
#08618:1616
#08918:0016
#09012:16
#09018:0016
#09112:16
#09118:0016
#04718:26
#04712:0026
#04818:26
#05713:24
#05719:24
#05710:41
#07712:26
#07818:26
#07913:2424
#07919:2424
#08013:24
#08019:24
#08712:26
#08718:0026
#08812:26
#05312:0036
#05518:0036
#09318:0036
#09512:0036
#08310:41
#07110:41
#013380:14
#014380:24
#015320:14
#016320:24
#0213a0:14
#0223a0:24
#023340:14
#024340:24
#029380:14
#0303a0:24
#031340:14
#032320:24
#0373a0:14
#038380:24
#039320:14
#040340:24
#043380:1626
#044320:1626
#048380:16363636
#049380:26
#052380:163636260000
#053320:1636
#054340:26
#055380:1636
#056360:26
#065340:14
#065330:0034
#066320:24
#067380:14
#067390:0034
#0683a0:24
#069320:14
#069330:0034
#070340:24
#0713a0:14
#071390:0034
#072380:24
#083320:1626
#084380:1626
#088320:16363636
#089320:26
#092320:163636260000
#093380:1636
#094360:26
#095320:1636
#096340:26
#097380:16
#098380:00000026
