This file was generated by Ched 2.7.0.0.
#TITLE ""
#ARTIST ""
#DESIGNER ""
#DIFFICULTY 0
#PLAYLEVEL
#SONGID ""
#WAVE ""
#WAVEOFFSET 0
#JACKET ""
#REQUEST "ticks_per_beat 480"
#00002: 4
#BPM01: 185
#00008: 01
#TIL00: ""
#HISPEED 00
#MEASUREHS 00
#0001b:1313000000002300
#00012:1313000000002300
#00018:0000000000000000130000001300000013333333333333330000000000000000
#00015:0000000000000000000013000000000013333333333333330000000000000000
#0011b:13131300
#00118:0013001300131300
#00115:0000130000000013
#00112:13001313
#00312:1300000013000013
#0031b:1300130013000013
#00318:0013001300131300
#00315:00000000130000000000001300000000
#0041b:0013001300000000
#00412:13131300
#00418:1300130013001313
#00415:00001300000000000000130000130013
#00518:0013001300131300
#00515:00130000
#0051b:2300000013000013
#00512:23000000000000001300001300001300
#00719:0013001300000000
#00717:00130000
#00714:0000000000130013
#00716:00000013
#00718:00000000000000000000001300000000
#00712:23132300
#0071b:2323
#0091b:00130013
#00919:0000001300130000
#00917:1313
#00912:1300000013000013
#00916:00000013
#00910:41
#01015:13
#01018:0013000000000000
#01016:00130000
#01017:0000001300000013
#01012:0000001300000013
#0101b:00130000
#01117:1300000013130000
#01116:0000131300001313
#0111b:00130013
#01112:1313
#0121b:1300130000001313
#01217:0013001300000000
#01212:1313000013001300
#01216:0000000000130013
#01215:00130000
#0141b:00000013
#0141c:0012001200000000
#01418:00120000
#01415:00000013
#02418:13130000
#02415:0013000000000000
#02417:0000000000000013
#02412:0000001300000000
#0241b:0000001300000000
#02718:1313001313001313
#02715:00130000
#02712:1300000013000013
#0271b:00130000
#02815:1300131313000000
#02812:0000000000130013
#02818:1300000013001313
#0281b:0013001300000000
#02915:13131300
#0291b:0013001300002300
#02918:1300000013000013
#02912:0000001300230013
#0311b:2313000023130000
#03118:0000231300002313
#03112:00000000001300130000000000130013
#03115:00130013000000000013001300000000
#03417:0000000000000013
#03416:0013
#0341b:0000000000232300
#03515:1313001313000000
#03512:0000130000130000
#03518:00130013
#0351b:1300000013000013
#03615:13000013
#03618:0000131300000013
#03715:1300000000130013
#03712:0000001300001300
#0371b:23131313
#03818:1300001300001300
#0381b:0013000000000000
#03812:23131313
#03916:13
#03914:00130013
#03917:0013
#03919:00130013
#0391a:0013000000000000
#03918:0000001300000000
#03913:0000000000130000
#03915:0000000000000013
#0391b:23
#03912:0023
#0411b:00000000000013000000000000000013
#04118:0013
#04112:2400000013130000
#04114:00000013
#04116:0000000000000013
#04115:0000001300000000
#04117:00000000000000000000001300000000
#04119:00000000000000000000000000130000
#0411a:24
#04110:41
#0421b:0013130000130000
#04217:0000001313000000
#04218:0000000000001313
#04216:00000013000000000000130000000000
#04212:13000000000000130000000000000000
#04215:00000000000000000000000000130013
#04318:1300000000000013
#04312:0000001313000000
#04317:0013
#04315:0000000000130000
#0431b:00000013
#04316:00000013
#04412:1300131300001300
#04415:0013000000000013
#04418:00000013000000000000000013000000
#0441b:00130000000013000000000000000000
#04518:13
#04512:13
#04516:0000141300000000
#04514:0013
#04519:00000013
#04612:0000000000130000
#04615:00000013
#04618:0000000000000013
#04614:13
#0461b:0000001300000000
#04619:00130000
#04616:0014
#0471b:13132300
#04719:0000000000130013
#04714:0013001300000000
#04716:00130000
#04712:23001313
#04717:00000013
#0491b:0000001300130000
#04918:0000000013001313
#04912:2300000000130000
#04915:00000000000000130000000000130013
#05018:1300131300000013
#05015:0000000000130000
#0501b:0013000013001300
#05012:0013000013001300
#05112:1300001400000000
#05114:0014
#05116:0000000000140000
#05118:00000014
#0511a:0000000000000014
#0511b:13
#05216:00000013
#0521b:23000013
#0521a:002300000000
#05219:002300
#05218:0023
#05215:23
#05214:002300000000
#05213:002300
#05212:0023
#0531b:00000013
#05317:13
#05312:13
#05315:00000013
#05418:1300001300000013
#0541b:0000130000130000
#05412:13131313
#05415:0013001300130013
#05518:0013001300130013
#05518:0000000000000013
#0551b:13131313
#05515:00130013
#05512:0000000013000013
#05615:0013001300000013
#05618:00130013
#0561b:0000001300130000
#05612:23
#05712:1300000000000013
#05718:0000001313000000
#05715:00000000000000130000000000000000
#0571b:1300000000130000
#05719:00000013
#05717:0000000000000013
#05716:0000000000130000
#05714:00000013
#05710:41
#05917:13
#05918:0000001313130000
#05915:00000000000000130000000000130013
#05912:13000000000000000013001300000000
#0591b:0000000000001313
#06018:1300000000130000
#0601b:00130000
#06016:00000000001300000000000000000000
#06019:0000001300001300
#06014:00000000000000130000000000130000
#0601a:0013
#06015:00000000000000000013000000000000
#06013:00000000000000000000001300000000
#06017:0000000000000013
#06012:00000000000000000000000000000013
#0621b:0000130000000013
#06216:00000000001300000000000000000013
#06219:0000001300001300
#06214:00000000000000130000000000130000
#06217:0000000013130000
#06212:26000000000000000013001300000000
#06312:00000000130000000000000000000013
#06318:26000000001300000000000000001300
#06315:00000000000013002600000000130000
#0631b:00000000000000130000130013000000
#06418:00000000001300000000000000001300
#06412:00001300230000000000000000000013
#06415:26000000000013002600000000130000
#0641b:00000000000000130000130023000000
#06518:14000000000014000000000000130013
#0651b:00000013000000000000130000000000
#06514:00140000001400000000000000000000
#06515:0000000000001313
#06512:00000013000000000000130000000000
#06612:13
#06617:00130000000000000000000000000000
#06614:0013130000000000
#06619:00000013001300000000000000001300
#0661b:00000000000000130000000013000000
#06615:00000000000000000000000000130000
#06613:00000000000000000000000000000013
#06616:0000001324000000
#06717:1300000000130000
#06712:00001300000000000000130000130000
#06715:00000000130000000000000000000013
#06718:0000001300000013
#0671b:00001313
#06716:00000000000000130000000000000000
#06918:2613000000001212
#0691c:0000121200000000
#06916:00000000001200120000000000000000
#06912:00001300000000000000000000120012
#0691a:0000000012120000
#06914:00000000000000000012001200000000
#07112:2613130026130000
#07118:00001300001300000013001300000000
#07115:0000001300001313
#0711b:00000000000000130000000000130013
#07110:41
#07218:0000000000000012
#07212:2400242400242400
#0721a:0024242400242400
#07316:12
#07318:0012001200120012
#0731f:11
#07618:00000013
#07615:0000000000000013
#07612:2323002300230000
#0761b:2323002300230000
#07718:26130000
#07715:0000000013131313
#07712:1313131300000000
#0771b:00001313
#07818:1313131300000000
#0781b:0000000013131313
#07812:26130000
#07815:00001313
#07912:1313000023001300
#07915:0000131300000000
#07918:0000000013130000
#0791b:2300130000001313
#00812:13232323
#0081b:1300002300002300
#00818:00232300
#00815:0000002300000000
#01312:0000000000130000
#01314:00000013
#01316:0000000000000013
#0131b:0000000000000013
#01319:00000013
#01317:0000000000130000
#01315:0013
#01318:13
#02312:0000001300000000
#0231b:1300000000000013
#02316:1300000000130000
#02112:00000013
#0211b:00000013
#02116:0000000000000014
#02117:0013
#02115:13
#02216:1313
#02217:00130013
#02219:0013000000130000
#02214:0000001300000013
#02212:00130013
#0221b:1313
#0251b:0013
#02517:00000000000000000000001300000000
#02512:0000000000232300
#02510:41
#03216:0000000000000013
#03212:0024002400240000
#0321a:2400002400240000
#03312:0013
#03316:00000000000000000000001300000000
#0331b:0000000000232300
#04012:23000000000000001333003300000000
#04015:0000000000130000
#0401b:23000000000000001333003300000000
#04018:0000000000130000
#04818:00130000001300000013000000130000
#04815:0013001300130013
#0481b:00000013000000130000001300000013
#04812:23232323
#0581b:0000130000000013
#05815:0000001313000000
#05818:00000000000000130000000000000000
#05812:0000000000130000
#05814:00000013
#05816:0000000000000013
#05817:0000000000130000
#05819:00000013
#06112:00130000
#06117:00000000001300000000000000000000
#06114:0000001300001300
#06119:00000000000000130000000000130000
#06113:0013
#06118:26000000000000000013000000000000
#06115:0000000000130000
#0611a:00000000000000000000001300000000
#06116:0000000000000013
#0611b:00000000000000000000000000000013
#06815:00001300003333330000130000333333
#0681b:00333333000013000033333300001300
#07015:0013000000000000
#07012:0000121200000000
#07018:26000000001200120000000000000000
#0701b:0013000000000000
#07014:0000000012120000
#0701a:00000000000000000012001200000000
#07016:0000000000001212
#0701c:00000000000000000000000000120012
#07416:12
#07418:0012001200120012
#07516:12
#07518:0012001200120012
#0801b:13
#08018:00000000000000001333333300000000
#08012:13
#08015:00000000000000001333333300000000
#08112:25000000000013000000000000000013
#08115:0013
#0811b:0000000013130000
#08119:25000013
#08117:0000000000000013
#08118:0000001300000000
#08116:00000000000000000000001300000000
#08114:00000000000000000000000000130000
#0811f:21
#08212:0013130000130000
#08216:0000001313000000
#08215:0000000000001313
#08217:00000013000000000000130000000000
#0821b:13000000000000130000000000000000
#08218:00000000000000000000000000130013
#08315:1300000000000013
#0831b:0000001313000000
#08316:0013
#08318:0000000000130000
#08312:00000013
#08317:00000013
#08310:41
#0841b:1300131300001300
#08418:0013000000000013
#08415:00000013000000000000000013000000
#08412:00130000000013000000000000000000
#08515:13
#0851b:1300001300000000
#08519:0013
#08514:00000013
#08516:00140000
#0861b:0000000000130000
#08618:00000013
#08615:0000000000000013
#08619:13
#08616:0000001314000000
#08614:00130000
#08712:13132300
#08714:0000000000130013
#08719:0013001300000000
#08717:00130000
#0871b:23001313
#08716:00000013
#08912:0000001300130000
#08915:0000000013001313
#0891b:2300000000130000
#08918:00000000000000130000000000130013
#09015:1300131300000013
#09018:0000000000130000
#09012:0013000013001300
#0901b:0013000013001300
#0911a:0000001400000000
#09118:0014
#09116:0000000000140000
#09114:00000014
#09112:1300000000000014
#0911b:13
#09217:00000013
#09212:23000013
#09213:002300000000
#09214:002300
#09215:0023
#09218:23
#09219:002300000000
#0921a:002300
#0921b:0023
#09312:00000013
#09316:13
#0931b:13
#09318:00000013
#09415:1300001300000013
#09412:0000130000130000
#0941b:13131313
#09418:0013001300130013
#09515:0013001300130013
#09515:0000000000000013
#09512:13131313
#09518:00130013
#0951b:0000000013000023
#08815:00130000001300000013000000130000
#08818:0013001300130013
#08812:00000013000000130000001300000013
#0881b:23232323
#03018:13131300
#0301b:0000001300230000
#03015:1313
#03012:0013001300002300
#02617:0013
#02616:0000000000000013
#02612:0000000000232300
#02012:1300130000001313
#0201b:1313000013001300
#02017:0000000000130013
#02018:00130000
#02016:0013001300000000
#01912:00130013
#01917:0000131300001313
#0191b:1313
#01916:1300000013130000
#01816:0000001300000013
#0181b:0000001300000013
#01812:00130000
#01817:00130000
#01815:0013000000000000
#01818:13
#01717:00000013
#0171b:1300000013000013
#01712:00130013
#01714:0000001300130000
#01716:1313
#01616:0014
#01612:2400002300230000
#0161a:0024000000000000
#0161b:0000002300230000
#01517:00130013000000000000000000130013
#0151b:00000000000000000013001300000000
#01516:0000000013130000
#01512:1313000000001313
#01519:00000000001300130000000000000000
#01514:0000131300000000
#0061b:23000000000000001300001300001300
#00612:2300000013000013
#00615:0013001300131300
#00618:00130000
#00218:0000130000000013
#00215:0013001300131300
#00212:13131300
#0021b:13001313
#09712:1c
#0961b:2323232300000000
#09612:0023232300000000
#09619:0000000000232300
#09614:0000000000232300
#0005b:00000013
#00058:0053
#00052:00000013
#00055:0063
#00352:0000000000000013
#0045b:0013000000000000
#0415a:44
#04152:34
#01057:0000005300000000
#01052:0000005300000000
#0125b:53530000
#01257:0023002300000000
#01252:00006363
#01256:0000000000230023
#02352:0000005300000000
#02356:3300000000230000
#0235b:53
#02452:0000003300000000
#0245b:0000004300000000
#0255b:0053
#02557:00000000000000000000002300000000
#02752:0053
#02855:0063
#02852:0000000000230000
#0285b:0023000000000000
#02858:53
#02958:5353
#0295b:0023000000001300
#02952:0000000000130000
#02955:0053
#03352:0063
#03356:00000000000000000000002300000000
#03456:0063
#03555:0053
#03558:00000053
#03552:0000000000230000
#0355b:0000000000000023
#03655:53
#03658:0000005300000000
#03755:53
#03858:0000005300000000
#0405b:13006343
#04052:13005333
#04055:0000000000230000
#04058:0000000000230000
#05255:13
#05254:001300000000
#05253:001300
#05252:0013
#0525b:13000053
#0525a:001300000000
#05259:001300
#05258:0013
#04358:53
#0445b:0000005300000000
#04452:0000005300000000
#0515b:53
#05152:53
#05357:53
#05352:53
#05452:53535353
#05455:0023002300230023
#05458:53
#0555b:63636363
#05558:0023002300230023
#05655:0000005300000000
#05752:0000000000000053
#06158:16
#06252:16
#06358:16
#06355:0016
#06455:1616
#06452:00130000
#0645b:00000013
#06656:0014
#0805b:53000043
#08058:0023
#08052:63000033
#08055:0023
#08355:63
#0845b:0000006300000000
#08452:0000006300000000
#09455:63
#0945b:63636363
#09458:0023002300230023
#09152:63
#0915b:63
#09356:63
#0935b:63
#09252:13000063
#09253:001300000000
#09254:001300
#09255:0013
#09258:13
#09259:001300000000
#0925a:001300
#0925b:0013
#09552:53535353
#09555:0023002300230023
#08159:45
#08152:35
#04952:13
#0895b:13
#0055b:13
#0075b:13
#00752:0013
#03052:0023000000001300
#0305b:0000000000130000
#03058:0063
#03055:6363
#02657:0053
#02257:00430043
#02256:3333
#02155:63
#0205b:00005353
#02057:0000000000230023
#02052:63630000
#02056:0023002300000000
#0185b:0000006300000000
#01856:0000006300000000
#0175b:63
#01652:1400000000330000
#0165b:0000000000430000
#0165a:0014000000000000
#01356:0000000000000053
#01358:53
#00952:53
#00652:13
#09752:5c
#04552:13
#04558:13
#08555:13
#0855b:13
#000380:0000000000000000000000000000000013333333333333330000000000000000
#0003b0:00000023
#000351:0000000000000000000000000000000013333333333333330000000000000000
#000321:00000023
#009321:13
#009361:00230000
#010371:0000001300000000
#0103b1:00000023
#010320:0000001300000000
#010360:00000023
#0123b0:13332300
#012370:0033003300000000
#012321:00001333
#012361:0000000000330033
#013321:23
#013380:13
#0133b0:0023
#013360:0000000000000013
#014320:0023
#0173b0:13
#017370:00230000
#018360:0000001300000000
#018320:00000023
#0183b1:0000001300000000
#018371:00000023
#020321:13332300
#020361:0033003300000000
#0203b0:00001333
#020370:0000000000330033
#0213b0:23
#021351:13
#021321:0023
#0233b1:13
#023371:0000002300000000
#023320:0000001300000023
#023360:0000000000530000
#024320:0000000000000013
#025320:23
#025371:1323000000000000
#025340:0013230000000000
#025391:0000132300000000
#025360:0000001323000000
#0253b1:0000000013000023
#025371:00000000000000000000005300000000
#025360:0000000000000013
#026360:23
#0263b1:1323000000000000
#026340:0013230000000000
#026391:0000132300000000
#026320:0000001323000000
#026371:0013
#0263b1:0000000000000023
#027321:0013
#027351:00000023
#028381:13230000
#0283b1:0053000000000000
#028351:00001323
#028321:0000000000530000
#029381:13230000
#0293b1:0053000000000000
#029381:0013
#0293b1:00000023
#029350:0013
#029320:0000000000230000
#030351:13230000
#030321:0053000000000000
#030351:0013
#030321:00000023
#030380:0013
#0303b0:0000000000230000
#0323b1:0000000000000013
#0333b1:23
#033360:1323000000000000
#033391:0013230000000000
#033340:0000132300000000
#033371:0000001323000000
#033320:0000000013000023
#033360:00000000000000000000005300000000
#033371:0000000000000013
#034371:23
#034320:1323000000000000
#034391:0013230000000000
#034340:0000132300000000
#0343b1:0000001323000000
#034360:0013
#034320:0000000000000023
#035350:00001323
#035320:0000000000530000
#035381:00000013
#0353b1:0000000000000053
#036381:23
#036350:13
#036320:0000002300000000
#036381:0000001300000000
#0363b1:00000023
#037351:13
#037321:00230000
#038381:0000001300000000
#0383b1:0000000000230000
#040321:00000000000000001333003323000000
#040351:0000000000330000
#0403b0:00000000000000001333003323000000
#040380:0000000000330000
#043380:13
#0433b0:0000002300000000
#044320:0000001300000000
#044350:0000000000230000
#0443b1:0000001300000000
#044381:0000000000230000
#0453b1:0000001300000000
#045371:0000000000230000
#045320:0000000000130000
#045360:0000000000000023
#0453b1:0000000000000013
#046371:0023000000000000
#046320:0013000000000000
#046360:0000002300000000
#051320:13
#051350:00230000
#0513b1:13
#051381:00230000
#0523b1:00000013
#053371:33
#0533b1:0023
#053320:13
#053360:0023
#054320:13333333
#054350:0053005300530053
#055320:23
#054381:13
#0543b1:0023000000000000
#0553b1:13333333
#055381:0053005300530053
#0563b1:23
#056351:0000001300000000
#056321:0000000000230000
#057321:0000000000000013
#058361:00230000
#0683b1:13333333000000000000000000000000
#068381:00230000
#068350:00000000133333330000000000000000
#068320:0023
#0683b1:00000000000000001333333300000000
#068381:00000023
#068350:00000000000000000000000013333333
#069320:23
#0803b0:13000023
#080380:00000000000000003333333300000000
#080321:13000023
#080351:00000000000000003333333300000000
#083351:13
#083321:0000002300000000
#0843b1:0000001300000000
#084381:0000000000230000
#084320:0000001300000000
#084350:0000000000230000
#085360:0000001300000000
#085320:0000000000230000
#085371:0000000000130000
#0853b1:0000000000000023
#085360:0000000000000013
#086320:0023000000000000
#086371:0013000000000000
#0863b1:0000002300000000
#0913b1:13
#091381:00230000
#091320:13
#091350:00230000
#092320:00000013
#093360:33
#093320:0023
#0933b1:13
#093371:0023
#0943b1:13333333
#094381:0053005300530053
#0953b1:23
#094350:13
#094320:0023000000000000
#095320:13333333
#095350:0053005300530053
#096320:23
#097320:1c
#098370:00000000000000000000000000000000000000000000000000000000000000005200000000000000005200005200000022000000000000000000000000000000
#098350:0000000000000000000000000000000000000000005200000000000000000000
#098390:00000000000000000000000000000000000000000000000000000000000000000000000000000000000000520000000000000000000000000000000000000000
