This file was generated by Ched 2.7.0.0.
#TITLE ""
#ARTIST ""
#DESIGNER ""
#DIFFICULTY 0
#PLAYLEVEL
#SONGID ""
#WAVE ""
#WAVEOFFSET 0
#JACKET ""
#REQUEST "ticks_per_beat 480"
#00002: 4
#BPM01: 185
#00008: 01
#TIL00: ""
#HISPEED 00
#MEASUREHS 00
#0001b:13000023
#00012:0013000000000000
#00018:00000000130000001333333300000000
#00015:0000001300000000
#0011b:1313
#00115:0013001300130000
#00118:00130013
#00112:0000000000000013
#00318:0000130000000013
#0031b:1313
#00315:0013001300000000
#00312:0000000000131300
#0041b:0013000000130000
#00412:1313
#00415:00130013
#00418:0000001300000013
#00518:0013001300001300
#00515:0000130000130000
#0051b:0013
#00512:2300000000000013
#00718:0013001300001300
#00715:0000130000130013
#00712:23
#0071b:0023
#00915:00131313
#00918:0000001300130000
#0091b:1300000000000013
#00910:41
#01018:13
#01015:0013000000000000
#01012:0000130000000013
#0101b:0000001300000000
#01118:1300000000130000
#01115:0000001300000013
#01112:00130013
#0111b:0013
#0121b:13
#01212:0013
#01218:0033000000000000
#01215:0000000000330000
#0141b:00000013
#0141a:0012001200000000
#01418:00120000
#01416:0000001200000000
#01415:00000013
#02418:13130000
#02415:0013000000000000
#0241b:0000000000000013
#02412:0000001400000000
#02718:0013001300000000
#02715:00130000
#02712:1313
#0281b:13130000
#02818:0000001300000013
#02815:1313
#0291b:00130000
#02918:0000001300000000
#02915:1300000013000013
#0311b:2313000000000000
#03115:0000231300000000
#03118:0000000023130000
#03112:0000000000002313
#03916:13
#03914:00130013
#03917:0013
#03919:00130013
#0391b:23
#03912:0023
#04115:0000000000130000
#04118:00000013
#0411b:0000001300000013
#04112:2400000013000013
#0411a:24
#04110:41
#0421b:0013000000000000
#04212:00130000
#04218:0000001300000000
#04215:0000000013000013
#04318:1300000000130000
#04312:0000001300000000
#0431b:0000000000001313
#04315:0013
#04418:13
#04415:0013000000001300
#0441b:0000001300001300
#04412:00130000
#04518:1300001300000013
#04512:13
#04515:00001313
#0451b:0000000000130000
#04612:1300000000130000
#04615:00000013
#04618:0000001300000013
#0471b:1323
#04718:0000130000130013
#04715:0013001300001300
#04712:2313
#04918:0000001300000013
#04915:00001313
#04912:2600000000130000
#05015:13001313
#0501b:0000001300130013
#0511a:0000001400000000
#05114:0014
#05118:0000000000140000
#05112:00000014
#05116:0000000000000014
#05115:13
#05215:00000013
#0521b:00000013
#05212:24
#05218:002400000000
#05214:002400
#0521a:0024
#05318:13000013
#05312:13000013
#0541b:13130000
#05415:1300001300001300
#05412:0000000000130000
#05418:0000000013000013
#05615:0013001300000013
#05618:23130013
#05712:1300000000130000
#0571b:13
#05715:00000013
#05718:0000000000000013
#05710:41
#0591b:13000000000000001333333333333333
#05915:0000001300000000
#05912:13
#06012:00000000130000001434343434343434
#06018:0000001300000000
#06618:0013000000000013
#0661b:0000001300001300
#06615:00132600
#06612:13
#06715:13130013
#06712:0013000000130000
#06718:0000001300000013
#0671b:0013
#07112:00130013
#07115:0000001300000013
#0711b:0000000000130000
#07118:0023
#07110:41
#07718:23130000
#07715:0000000000130013
#07712:0013001300000000
#0771b:00001313
#07912:13002313
#07915:00130000
#07918:0013
#0791b:23130013
#00812:13000024
#0081b:13
#00818:00242400
#0081a:00000024
#00814:0000002400000000
#01312:0000000000130013
#01315:00000013
#01318:1300000000000013
#02315:0000001300000013
#02312:14
#0231a:14
#0231b:0000001300000000
#02112:00000013
#0211b:00000013
#02115:13
#02212:14
#02214:00140000
#0221a:0014
#02218:00000014
#02512:00131300
#02515:13
#02518:0013001300000000
#0251b:0000000000000013
#02510:41
#0401b:00000000000000001333333300000000
#04012:24000000000000001333333300000000
#0401a:24
#04815:0013000000130000
#04818:0000001300000013
#0481b:13131313
#04812:23232323
#05512:0000000000000013
#0551b:13
#05815:0000000000000013
#0581b:0000000000130000
#05818:00000013
#06915:0013000000000000
#0691b:00000000133333333333003333333333
#06918:2300000000130000
#00212:1313
#00218:0013001300130000
#00215:00130013
#0021b:0000000000000013
#00615:0013001300001300
#00618:0000130000130000
#00612:0013
#0061b:2300000000000013
#01512:1313
#01515:0013000000130000
#01518:00130013
#0151b:0000001300000013
#01718:00131313
#01715:0000001300130000
#01712:1300000000000013
#01815:13
#01818:0013000000000000
#0181b:0000130000000013
#01812:0000001300000000
#01915:1300000000130000
#01918:0000001300000013
#0191b:00130013
#01912:0013
#02615:00131300
#02612:13
#02618:0013000000000000
#0261b:0000001300000013
#03012:00130000
#03015:0000001300000000
#03018:1313
#03712:2300000000130000
#03715:0000001300000013
#0371b:23131313
#03615:0000130000000013
#03618:0000001300000000
#03612:13
#03212:0000002400240013
#03214:0024000000000000
#03218:24
#0321a:0000002400240000
#03515:0013001300000000
#03518:00130000
#0351b:1313
#0331b:00131300
#03318:13
#03315:0013001300000000
#03312:0000000000000013
#03418:00131300
#0341b:13
#03415:0013000000000000
#03412:0000001300000013
#0381b:2300000000130000
#03818:0000001300000013
#03812:23131313
#0631a:00140000
#06312:00000014
#06316:24000000003434342400000000343434
#0651b:1313
#06515:0013000000130000
#06512:00130013
#06518:0000001300000013
#07012:00000000133333333333003333333333
#07015:0000000000130000
#07315:13
#07318:0013001300130013
#0731f:11
#07218:2600260000000013
#07212:0026002600242400
#0721a:0000000000242400
#07415:13
#07418:0013001300130013
#07515:13
#07518:0013001300130013
#07818:23130000
#07815:0000000000130013
#07812:0013001300000000
#0781b:00001313
#0801b:13000000000000001333333300000000
#08012:13000000000000001333333300000000
#08118:0000000000130000
#08115:00000013
#08112:2400001300000013
#0811b:0000000013000013
#0811a:24
#0811f:21
#08212:0013000000000000
#0821b:00130000
#08215:0000001300000000
#08218:0000000013000013
#08315:1300000000130000
#0831b:0000001300000000
#08312:0000000000001313
#08318:0013
#08310:41
#08415:13
#08418:0013000000001300
#08412:0000001300001300
#0841b:00130000
#08515:1300001300000013
#0851b:13
#08518:00001313
#08512:0000000000130000
#0861b:1300000000130000
#08618:00000013
#08615:0000001300000013
#08712:1323
#08715:0000130000130013
#08718:0013001300001300
#0871b:2313
#08915:0000001300000013
#08918:26001313
#0891b:0000000000130000
#09018:13001313
#09012:0000001300130013
#09112:0000001400000000
#09118:1314
#09114:0000000000140000
#0911a:00000014
#09116:0000000000000014
#09218:000000002400000000130000
#09212:00002413
#0921a:24
#09214:002400000000
#09315:13000013
#0931b:13000013
#09412:13130000
#09418:1300001300001300
#0941b:0000000000130000
#09415:0000000013000013
#09512:13
#0951b:0000000000000023
#09712:16
#08818:0013000000130000
#08815:0000001300000013
#08812:13131313
#0881b:23232323
#0611b:00130000
#06115:0000001300000000
#0611a:00000000000000001434343434343434
#06116:24
#06212:00000000130000001434343434343434
#06218:0000001300000000
#06216:24
#02012:13
#0201b:0013
#02015:0033000000000000
#02018:0000000000330000
#01614:24
#01612:0000002400240000
#01618:0024000000000000
#0161a:0000002400240000
#07612:2323002300230000
#0761b:2323002300230000
#06412:0024
#0641a:00240000
#06416:24000024
#09615:2300000000230000
#09618:0023000000002300
#09612:00230000
#0961b:0000002300000000
#0681b:00333333000000000000000000000000
#06812:00000000000000000033333300000000
#0005b:00000013
#00058:0053
#00358:0000000000000013
#0045b:0013000000000000
#0105b:0000005300000000
#0125b:53
#01252:0063
#02355:0000005300000000
#02352:14
#0235a:14
#0235b:0000005300000000
#02452:0000003400000000
#02552:0063
#02752:0053
#02855:0063
#02955:0053
#0405a:14
#04052:1453
#0405b:0063
#04058:00000013
#04055:00000013
#05252:14
#05258:001400000000
#05254:001400
#0525a:0014
#04358:53
#0445b:0000005300000000
#05155:63
#05358:53
#05352:53
#05655:0000005300000000
#05758:0000000000000053
#06156:14
#0615a:0064
#06356:1414
#0635a:00540000
#06352:00000064
#06452:0014
#0645a:00140000
#06456:14000014
#06655:0016
#04952:16
#00552:13
#00752:13
#0075b:0013
#0065b:13
#01358:53
#01652:0000000000140000
#0165a:0000000000140000
#01852:0000006300000000
#02155:63
#02252:14
#02254:00140000
#0225a:0014
#02258:00000014
#02655:0063
#03058:0063
#03658:0000005300000000
#0335b:0053
#0355b:0063
#03458:0053
#04152:14
#0415a:14
#04255:0053
#04652:53
#05055:53
#0555b:53
#0595b:0053
#06052:0054
#0695b:00530000
#06958:0000000000230000
#07052:00630000
#07055:0000000000230000
#08258:0063
#08355:63
#08052:0053
#0805b:0063
#08055:00000013
#08058:00000013
#08452:0000006300000000
#0865b:63
#0815a:14
#08152:14
#09058:63
#09158:53
#09355:63
#0935b:63
#09552:63
#0925a:14
#09254:001400000000
#09258:001400
#09252:0014
#09752:56
#08958:16
#06256:14
#06252:0054
#02052:63
#0205b:0053
#04552:13
#04558:13
#0855b:13
#08555:13
#000380:00000000000000001333333300000000
#0003b0:00000023
#0103b0:0000001300000000
#010380:00000023
#0123b0:13
#012380:0033230000000000
#012320:0013
#012350:0000000000332300
#013380:13
#0133b0:0023
#018320:0000001300000000
#018350:00000023
#020320:13
#020350:0033230000000000
#0203b0:0013
#020380:0000000000332300
#021350:13
#021320:0023
#023350:0000001300000000
#023320:00000023
#0233b1:0000001300000000
#023381:00000023
#025321:0013
#025351:00000023
#026351:0013
#026321:00000023
#027321:0013
#027351:00000023
#028351:0013
#028321:00000023
#029351:0013
#029321:00000023
#030381:0013
#0303b1:00000023
#0333b1:0013
#033381:00000023
#034381:0013
#0343b1:00000023
#0353b1:0013
#035381:00000023
#036381:0000001300000000
#0363b1:00000023
#0403b1:00000000000000001333333300000000
#040381:00000023
#040320:00000000000000001333333300000000
#040350:00000023
#042350:0013
#042320:00000023
#043380:13
#0433b0:00230000
#0443b0:0000001300000000
#044380:0000000000230000
#046320:13
#046350:00230000
#050350:13
#050320:00230000
#051350:13
#051320:00230000
#053380:13
#0533b0:0023
#053321:13
#053351:0023
#0553b1:13
#055381:00000023
#056351:0000001300000000
#056321:0000000000230000
#057381:00000000000013332300000000000000
#057381:0000000000000013
#0583b1:00230000
#058351:00000000000013332300000000000000
#0593b1:00000000000000001333333333333333
#060381:23
#060321:00000000000000001434343434343434
#061361:24
#0613a1:00000000000000001434343434343434
#062361:24
#062321:00000000000000001434343434343434
#063361:24
#0633a1:00140000
#063361:00000000003434342400000000000000
#063321:00000014
#063361:00000000000000000000000000343434
#064361:24
#0683b1:13333333000000000000000000000000
#068381:00230000
#068321:00000000000000001333333300000000
#068351:00000023
#0693b1:00000000133333333333003333333333
#069381:0000000000330000
#0703b1:23
#070321:00000000133333333333003333333333
#070351:0000000000330000
#071321:23
#080321:00000000000000001333333300000000
#080351:00000023
#0803b0:00000000000000001333333300000000
#080380:00000023
#082380:0013
#0823b0:00000023
#083350:13
#083320:00230000
#084320:0000001300000000
#084350:0000000000230000
#0863b0:13
#086380:00230000
#090380:13
#0903b0:00230000
#091380:13
#0913b0:00230000
#093350:13
#093320:0023
#0933b1:13
#093381:0023
#095321:13
#095351:00000023
#097321:16
#098321:00000023
