This file was generated by Ched 2.7.0.0.
#TITLE ""
#ARTIST ""
#DESIGNER ""
#DIFFICULTY 0
#PLAYLEVEL
#SONGID ""
#WAVE ""
#WAVEOFFSET 0
#JACKET ""
#REQUEST "ticks_per_beat 480"
#00002: 4
#BPM01: 185
#00008: 01
#TIL00: ""
#HISPEED 00
#MEASUREHS 00
#0001b:1313000000002300
#00018:00130000130000000000000000000000
#00015:0000000000001300000000001300000013333333333333330000000000000000
#00012:00000000001300130000000000000000
#00112:13001313
#0011b:13131313
#00115:00001600130016000000001300001300
#00118:00000000000000000000130000000013
#00412:13001c00130000001300000000130000
#0041b:13001313
#00418:0000131300130013
#00415:00000000000013000013000000000013
#00515:00001600130016000000001300000000
#0051b:23131313
#00518:0000000000130013
#00512:2300000013000013
#00719:0013001300000000
#00717:00130000
#00714:0000000000130013
#00716:00000013
#00712:23000013001300002300000000000000
#0071b:23000000000000002300001300130000
#00715:00130000000000130000000000000000
#00718:00000000000000000013000000000013
#00919:0000001300130000
#00917:0000000013000013
#0091b:00000013
#00912:1200000012000014
#00916:00120014
#00914:0012001200000000
#00910:41
#0101b:13
#01019:0013000000000000
#01017:0000130000000013
#01012:00000000001200000000000000001300
#01016:00120000000000000000120000000000
#01014:00000012000000000000000012000000
#0101c:00000000000000000000001200000000
#0101a:00000000000000000000000000120000
#01015:0000001300000000
#01117:1313
#01116:0000131800001318
#01112:1318000013180000
#0111b:00130013
#01317:0000000000130013
#0131b:13000013
#01316:00131313
#01312:0000130000130013
#0141b:00000013
#0141a:0012001200000000
#0141c:00120000
#01415:00000013
#01418:0000000000130013
#01412:0000000000000013
#01512:1313000000000000
#01516:00130013000000000000000000000000
#01514:0000131300000000
#01518:00000000001300130000000000000000
#01517:0000000000001313
#0151b:00000000000000000000000000130013
#01515:0000000013130000
#01519:00000000000000000013001300000000
#0241b:0000001300130000
#02418:1300130000001313
#02412:0016001300130000
#02415:13000000130000000000000000130000
#02616:0000000000000013
#0261b:1313131313000013
#02612:0000000000232300
#02718:1300131313160016
#02712:1319000013000013
#02715:00000000001300130000000000000000
#0271b:00000013
#02818:1300000013160013
#02812:0016130000130013
#02815:1300001313000000
#0281b:0013001300001300
#02915:1316130016000013
#02918:00000000000016000000001300000000
#02912:0000001300262600
#0291b:1300000000000013
#03115:00130000000000000000000000000000
#0311a:0014000000000000
#03114:00000014000000000000000000000000
#03113:00000000001500000000000000000000
#03118:0000001623142516
#03112:00000000000000160013001400150016
#0311b:23
#03119:00250000
#0361b:0000001300000013
#03615:0016131613160016
#03618:13000013
#03612:0013000000130000
#03712:2c00001300001300
#03715:0016130013160013
#0371b:00131313
#03718:00000000000013000000000000000013
#03916:00130000000000000000000000000000
#03914:00000000001300000000000000130000
#0391a:0013000000000013
#03919:00130013
#03918:0000001300130000
#03915:00000013000000000000000000000013
#03913:00000000000000130000001300000000
#03912:00000000000000000013000000000000
#0391b:23
#03917:0023
#0411b:0000001300000000
#04118:26001300000000001300000000140000
#04112:2600000013141414
#04115:0000131300000000
#04116:00000000000000000000001400000000
#0411a:00000000000000000000000000000014
#04110:41
#0421b:0013130000130000
#04212:14000000000013001300000000130000
#04215:00000000000000000000000013000013
#04218:0000000000000013
#04216:00000014000000140000130000000000
#04312:1319161313000000
#04318:0013
#04313:0000000000130000
#0431a:00000013
#0431b:1300001300000013
#04314:00000013
#04319:0000000000130000
#04315:0000000000000013
#04412:1300001300001300
#04414:0013000000000000
#04419:00000013000000000000000000000000
#04418:00000013
#04417:00130000000000000000000000000000
#04416:00130000
#04415:0000000000000016
#0441b:00000000001300000000130000000000
#0451b:13000000130000130000130000000013
#04512:13000000000013000000001300001300
#04515:0016130016001600
#04612:0013001300130000
#04615:16130013
#04618:0013001300000013
#0461b:00130000
#04616:0000000014140000
#0471b:13002313
#0471a:00000000001400000000000000000000
#04717:00000000000000000000001400000000
#04719:0000000000000013
#04716:00001400140000140000000000000000
#04712:2313001413000000
#04715:00000000000000000000000000000014
#04714:0000000000130000
#0491b:2300001313130000
#04918:0000000000001313
#04915:00000000000000130000001300000000
#04912:23000000130000000000000000000013
#04916:00140000
#05018:1300000000000013
#05015:0000161300160000
#0501b:0013000013001300
#05012:0013000013001300
#05112:1300131400000000
#05114:00000000000000001400001300000000
#05116:00000000000000000000140000130000
#05118:00000000000000000000000014000013
#0511a:0000000000000014
#0511b:13130000
#05115:0016000000000000
#05117:00000000000000130000000000000000
#05119:00000000000000000013000000000000
#05318:0013001300130013
#05312:26161616
#0531b:00131313
#05613:0013000000000000
#05619:00130000
#05618:0000001300000000
#0561b:2300000000131300
#0561a:0013000000000000
#05615:0000001300000000
#05614:00130000
#05612:2300000000131300
#05712:1300000000000013
#05716:00000000000014141400130000000000
#0571b:1300000000130000
#05719:00000013
#05717:0000000000000013
#05714:00000013
#05710:41
#05917:13
#05916:00000000000014140000000000000000
#05912:1300000013130000
#05915:00000000000000000013000013000000
#05918:00000000000000000000001300001300
#0591b:00000000000000000000000000130013
#06012:13000000000000000000000000000013
#0601b:00130000
#06017:00000000001414000000000000000000
#06014:00000000000000130000000000000000
#0601a:0013
#06016:00000000000000000014140000000000
#06013:00000000000000000000001300000000
#06019:00000013
#06015:00000000000000000000000000141400
#0621b:0000130000000013
#06212:26000000001300000000000000000013
#06218:0000001300000000
#06215:00000000000000130000000000130000
#06216:00000000000000001414141400000000
#06219:00000013
#06312:2c000000130000002c00130000000013
#06318:00000000001300000000130000001300
#06315:00000000000013000000000000130000
#0631b:00000000000000130000000013000000
#06316:0014000000000000
#06514:14140000000000000000000014140000
#0651b:00000013000000001300130000000000
#06518:00000000001414000000000000001300
#06515:00000000000000000000000000000013
#06512:00000013000000001300130000000000
#0661b:13130013
#06618:00130000001300000000000000001300
#06615:00001300000013000000000000130000
#06612:00000013000000130000130000000013
#06617:0000000000130000
#0661a:0024
#06715:13000000000000000000000000000013
#06712:00001300000000000000130000130000
#06714:00130000
#0671b:0000001313001300
#06716:00000000000000130000000000000000
#06717:0013000000130000
#06718:0000000000000013
#06719:00130000
#06918:00001300000000000012000012001200
#0691c:00120000
#06916:0000001200000000
#06913:00000000000000120000000000000000
#06912:00001300000000000000001200120012
#06919:00000000001200000000000000000000
#0691b:2312
#06915:0000000000120000
#07112:2413131326160000
#07115:00000000001300130000000000000000
#07118:00001300000000000016001613001300
#0711b:00000000000000000000000000130013
#0711a:24
#07110:41
#07216:0000000000000014
#07212:2424242400242400
#0721a:2424242400242400
#07316:1214001412140014
#07318:00120000
#0731f:11
#07615:00000000000000000000000016000013
#07618:0000000000000013
#0761a:2424002400240000
#07612:2424002400240000
#07718:0013130000000013
#07715:0000001300131300
#07712:2c1313001c000000
#0771b:0000000000131300
#07818:0013130000000013
#07815:0000001300131300
#0781b:0000000000131300
#07812:2c1313001c000000
#07912:2c131c002c001c13
#07915:0000001300000000
#0791b:0000001300130000
#07918:0000000000000013
#00312:130000001300131c
#0031b:13131313
#00318:0013001300130000
#00315:00001300130013000000001300000000
#00812:1326002c
#0081b:13
#00818:0013000026000000
#00815:0000002600000000
#01212:1200000013000013
#01214:0012001200001300
#01216:0000120000130000
#0121b:1300001300000000
#01217:0013000000000000
#01219:00130000
#0121a:0000000000120012
#0121c:00000012
#01616:2424140014000000
#01618:0000000000261313
#01615:00000000000000000000000000130000
#01612:2300002400260000
#0161b:0023000000000000
#0161a:0000002400000000
#02112:13000013
#0211b:00130013
#02115:0000000000000013
#02117:00131300
#02118:0000000000000013
#02216:14141414
#0221b:1313
#02212:00130013
#02214:0018001800180018
#02316:14
#0231b:1300000000131300
#02312:0000131313000000
#02318:0000000000000016
#0251b:1313131313000000
#02516:00000000000000000000001300000000
#02512:0000000000232300
#02510:41
#04818:00130013000013000013001300001300
#04815:00001300001300130000130000130013
#04812:2323
#0481b:00230023
#05812:1800000000130000
#05814:0018000000001300
#05816:00000000180014141400000000001300
#05817:0000000000130000
#05819:00000013
#0581b:0000000000000013
#06415:00001300290000130000000000001300
#0641b:00001300000000000000000000130000
#06412:2c000000001300002c00130029000000
#06418:00000000000013000000130000000013
#07015:00001300001200000000000000000000
#0701b:00001300000000120000000000000000
#07012:24120000
#07018:0000001200000000
#07013:0012
#07019:0000000000120000
#0701c:00000000000000000000001200120012
#07016:00000000000000000012000012001200
#0701a:24
#07416:0014121400140014
#07418:1212
#07516:1214001412140014
#07518:00120012
#09712:1c
#00215:00001600000016000000130000130013
#0021b:13001313
#00218:00000000130000000000001300001300
#00212:13131300
#00615:0016001600130013
#00618:00000000130000000000001300000000
#00612:23131313
#0061b:2300000013000013
#01714:0000001300130000
#01716:0000000013001413
#01712:00000013
#0171a:0012001200000014
#0171c:1212
#01718:00120000
#01812:13000000000000000000001200000000
#01814:00001300000000000000000000120000
#01816:0000130000000013
#0181b:0000000000000013
#01818:00120000000013000000120000000000
#0181a:00000012000000000000000012000000
#0181c:00000000001200000000000000000000
#01916:1318000013180000
#01917:00130013
#01912:0000131800001318
#0191b:1313
#0201c:12
#0201a:0012001200000000
#02018:00120000
#02012:1300001300001200
#02016:0013000000000000
#02014:0000130000120012
#0201b:0000000013000013
#02017:0000000000130000
#02019:00000013
#03018:1300130000262613
#03012:1300001600000013
#0301b:0000001300000000
#03015:00001600000000001600001300000000
#03215:0000000000001313
#03218:00000000000026000000260000130000
#03212:2424002600260000
#0321a:2424000000000000
#03312:1313131313000000
#03317:00000000000000000000001300000000
#0331b:0000000000232300
#03412:1313131313000013
#03418:0000000000000013
#0341b:0000000000232300
#03515:1319131313000000
#03518:00000000001300130000000000000000
#03512:0000000000161316
#0351b:1300000013000013
#0381b:0000001300001300
#03818:0000130013000013
#03812:2c131313
#03815:00001600000013000000160000000013
#04012:23000000000000001434343400000000
#0401b:23
#05415:0013001300130013
#05418:26161616
#05412:16131313
#05212:0000261c
#05218:26
#05216:002600000000
#05214:002600
#05515:0019000000000000
#05518:00160000
#0551b:0000001300000000
#05512:2c000000000000132c00190016001300
#06112:00130000
#06115:00000000001414000000000000000000
#06119:00000000000000130000000000000000
#06113:0013
#06116:00000000000000000014140000000000
#0611a:00000000000000000000001300000000
#06114:00000013
#06117:00000000000000000000000000141400
#0611b:00000000000000000000000000000013
#06118:26
#0681b:1313
#06818:00130000000000000013000000000000
#06815:0013000000130000
#06812:00000013001300130000001300130013
#06817:0000131300001313
#0801a:00000000000000001434343400000000
#08012:2c
#08112:26000000130014000014000000000014
#0811a:0000000014141400
#08118:2600130000000014
#08116:00000000000000140000001400000000
#08114:00000000000000000000000000140000
#0811f:21
#08212:00001800000000140000130019000000
#08216:1400141814000000
#08215:0000000000000013
#0821a:00000014000000000000000000000000
#0821b:00000000000000000000000000130000
#08218:00000000000000000000000000000013
#08217:0000000000130000
#0831b:1300001300000000
#08319:0000000000130000
#08312:13000000000000000000000000000013
#0831a:0013
#08318:00160013
#08315:0019000000000000
#08316:00000000000000130000000000000000
#08314:00000000000000000000001300000000
#08317:0000000000000013
#08310:41
#0841b:1300001300001300
#08419:0013000000000000
#08414:00000013000000000000000000000000
#08415:0000000000001316
#08416:00130000000000000000000000000000
#08417:00130000
#08412:00000000001300000000130000000000
#08512:13130000
#0851b:13130000
#08518:0000001600000000
#08515:00001600000000000000001600000000
#08514:00000000000000001600000000000016
#08516:00000000000000160000000000001600
#08517:0000000000160000
#08513:00000016
#0861b:0013001300130000
#08618:0000130000131300
#08615:0000001300001313
#08612:1613130000000013
#08616:0014
#08712:13000000001400002300000013000000
#08715:00000000000000000000001400000000
#08714:0000000000000013
#08716:00001400140000140000000000000000
#0871a:0000001400000000
#0871b:2313000013000000
#08717:00000000000000000000000000000014
#08719:0000000000130000
#08815:00130013000013000013001300001300
#08818:00001300001300130000130000130013
#08812:2c2c2c2c
#08912:2300001300001300
#08914:0000000013000013
#08918:00000000000000130000000000000000
#08916:0000140000130000
#0891b:23000000130000000000001300000000
#0891a:00000000000000000000000000000013
#09015:0000161300160013
#09012:0013000013001300
#0901b:0013000013001300
#09018:0000001300000013
#09016:13
#0911a:0000001400000000
#09118:0014
#09116:00000000000000130000140000000000
#09114:00000000000000000013000014000000
#09112:1300130000000014
#0911b:13130000
#09115:00001600000000000000000000000013
#09119:00000000000000000000001300000000
#09117:00000000000000000000000000130000
#09318:2600261326002613
#0931b:0013000000130000
#09312:00000000000000130000000000000013
#09315:00000013000000000000001300000000
#09212:2600001c
#09214:002600000000
#09216:002600
#09218:0026
#09512:2c1916132c000023
#09515:0000000000190000
#09518:00000016
#0951b:00000000000000130000000000002300
#09415:0000001300000013
#09412:2613260026132600
#09418:16000013000000000000001300000000
#0941b:00000000000000130000000000000013
#0961b:2300000000232300
#09612:2300000000232300
#0961a:0023000000000000
#09619:00230000
#09618:0000002300000000
#09613:0023000000000000
#09614:00230000
#09615:0000002300000000
#04158:46
#04152:36
#01352:0000000000000053
#01356:00230000
#0135b:53
#01652:3300000000360000
#01658:0000000000460000
#0165b:0043000000000000
#02256:34443444
#02356:34
#0235b:53
#02352:0053
#02452:0000003300000000
#0245b:0000004300000000
#0255b:0053
#02556:00000000000000000000002300000000
#02552:0000000000333300
#02752:0053
#02858:5313
#0285b:0023000000001300
#02855:1363
#02852:0000130000230000
#0405b:13
#04052:1324
#0405a:00000044
#05258:16
#05256:001600000000
#05254:001600
#05252:0000165c
#04452:0000005300000000
#0445b:0000000000130000
#06158:16
#06352:1c1c
#0665a:0014
#04952:13
#0495b:13
#09752:5c
#0055b:13131313
#0075b:13
#00752:0013
#00757:00130000
#00756:00000013
#00352:000000000000004c
#00452:003c000000000000
#00652:13131313
#00055:0023
#0005b:00000043
#00952:1212
#00956:00120000
#01055:0000005300000000
#0125b:5300002300000000
#01259:00530000
#01257:0023000000000000
#01252:0000000063000023
#01256:0000000000230000
#01254:00000063
#0175c:1212
#01758:00120000
#01858:0000006300000000
#02052:6300002300000000
#02056:0023000000000000
#02054:00630000
#0205b:0000000053000023
#02057:0000000000230000
#02059:00000053
#02152:63
#02157:00230000
#0265b:0053
#02652:0000000000333300
#02952:0000000000363600
#03058:0000000000464600
#0325a:14
#03252:0014001600160000
#03258:0000001600160000
#03352:0063
#03357:00000000000000000000002300000000
#0335b:0000000000434300
#03452:0063
#0345b:0000000000434300
#0355b:0063
#03652:0013000000130000
#0365b:0000001300000013
#04252:1413
#0425b:00130000
#0435b:13
#0455b:13
#04552:13
#05352:16161616
#05458:16161616
#0565b:00000013
#05652:00000013
#0575b:53
#05752:53
#05957:53
#05952:53
#06052:53
#06252:16
#06455:00190000
#06452:1c001c19
#0725a:00000014
#07252:00000014
#07752:1c
#07852:1c
#07952:1c1c
#08052:1c000034
#0805a:0024
#08256:14141400
#0845b:0000006300000000
#08452:0000000000130000
#08552:13
#0855b:13
#08352:13
#08158:46
#08152:36
#0895b:13
#08952:13
#09252:1600006c
#09254:001600000000
#09256:001600
#09258:0016
#0965b:00000013
#09652:00000013
#09358:16161616
#09452:16161616
#09056:13
#09058:0000001300000000
#09055:0000000000160013
#09155:0016000000000000
#000350:0000000000000000000000000000000013333333333333330000000000000000
#0003b0:00000023
#009370:13
#0093b0:00230000
#010350:0000001300000000
#0103b0:0000000000230000
#0123b0:1300005300000000
#012370:0053000023000000
#012390:00330000
#012321:0000000013000053
#012361:0000000000530000
#012341:00000033
#013361:23
#0133b0:1323
#013360:00530000
#013320:0000000000000013
#014370:0023
#017360:13
#017320:00230000
#018380:0000001300000000
#018320:0000000000230000
#020320:1300005300000000
#020360:0053000023000000
#020340:00330000
#0203b1:0000000013000053
#020371:0000000000530000
#020391:00000033
#021371:23
#021320:1323
#021370:00530000
#0233b0:13
#023360:0023
#023321:0013
#023361:00000023
#024321:000000000000000000000000000000000000000000000000000000000000000000000000000000000000000000000000000000000000000000000000000000000000000000000000000000000000000000000000000000000000000000000000000000000000000000000000000000000000000000000000000000000000000000000000000000000000000000000000000000000000000000000000000000000000000000000000000000000000000000000000000000000000000000000000000000000000000000000000000000000000000000000000000000000000000000000000000000000000000000000000000000000000000000000000000000000000000000000000000000000000000000000000000000000000000000000000000000000000000000000000000000000000000000000000000000000000000000000000000000000000000000000000000000000000000000000000000000000000000000000000000000000000000000000000000000000000000000000000000000000000000000000000000000000000000000000000000000000000000000000000000000000000000000000000000000000000000000000000000000000000000000000000000000000000000000000000000000000000000000000000000000000000000000000000000000000000000000000000000000000000000000000000000000000000000000000000000000000000000000000000000000000000000000000000000000000000000000000000000000000000000000000000000000000000000000000000000000000000000000000000000000000000000000000000000000000000000000000000000000000000000000000000000000000000000000000000000000000000000000000000000000000000000000000000000000000000000000000000000000000000000000000000000000000000000000000000000000000000000000000000000000000000000000000000000000000000000000000000000000000000000000000000000000000000000000000000000000000000000000000000000000000000000000000000000000000000000000000000000000000000000000000000000000000000000000000000000000000000000000000000130000000000000000000000000000000000000000000000000000000000000000000000000000000000000000000000000000000000000000000000000000000000000000000000000000000000000000000000000000000000535800000000000000000000000000000000000000000000000000000000
#025321:380000000000000000000000000000000000000000000000000000000058000000000000000000000000000000000000000000000000000000000000000000000000000000000000000000000000000000000000000000000000000000000000000000000000000000000000000000000000000000000000000000000000000000000000000000000000000000000000000000000000000000000000000000000000000000000000000000000000000000000000000000000000000000000000000000000000000000000000000000000000000000000000000000000000000000000000000000000000000000000000000000000000000000000000000000000000000000000000000000000000000000000000000000000000000000000000000000000000000000000000000000000000000000000000000000000000000000000000000000000000005800000000000000000000000000000000000000000000000000000000380000000000000000000000000000000000000000000000000000000058530000000000000000000000000000000000000000000000000000000000000000000000000000000000000000000000000000000000000000000000000000000000000000000000000000000000000000000000000000000000230000000000000000000000000000000000000000000000000000000000000000000000000000000000000000000000000000000000000000000000000000000000000000000000000000000000000000000000000000000000000000000000000000000000000000000000000000000000000000000000000000000000000000000000000000000000000000000000000000000000000000000000000000000000000000000000000000000000000000000000000000000000000000000000000000000000000000000000000000000000000000000000000000000000000000000000000000000000000000000000000000000000000000000000000000000000000000000000000000000000000000000000000000000000000000000000000000000000000000000000000000000000000000000000000000000000000000000000000000000000000000000000000000000000000000000000000000000000000000000000000000000000000000000000000000000000000000000000000000000000000000000000000000000000000000000000000000000000000000000000000000000000000000000000000000000000000000000000000000000000000000000000000000000000000000000000000000000000000000000000
#025371:0053005300000000005300530000000000000000000000000000000000000000
#025331:000000000000000000000000000000000000000000000000000000000000000000000000000000000000000000000000000000000000000000000000000000000000000000000000000000000000000000000000000000000000005700000000000000000000000000000000000000000000000000000000370000000000000000000000000000000000000000000000000000000057530000000000000000000000000000000000000000000000000000000000000000000000000000000000000000000000000000000000000000000000535700000000000000000000000000000000000000000000000000000000370000000000000000000000000000000000000000000000000000000057000000000000000000000000000000000000000000000000000000000000000000000000000000000000000000000000000000000000000000000000000000000000000000000000000000000000000000000000000000000000000000000000000000000000000000000000000000000000000000000000000000000000000000000000000000000000000000000000000000000000000000000000000000000000000000000000000000000000000000000000000000000000000000000000000000000000000000000000000000000000000000000000000000000000000000000000000000000000000000000000000000000000000000000000000000000000000000000000000000000000000000000000000000000000000000000000000000000000000000000000000000000000000000000000000000000000000000000000000000000000000000000000000000000000000000000000000000000000000000000000000000000000000000000000000000000000000000000000000000000000000000000000000000000000000000000000000000000000000000000000000000000000000000000000000000000000000000000000000000000000000000000000000000000000000000000000000000000000000000000000000000000000000000000000000000000000000000000000000000000000000000000000000000000000000000000000000000000000000000000000000000000000000000000000000000000000000000000000000000000000000000000000000000000000000000000000000000000000000000000000000000000000000000000000000000000000000000000000000000000000000000000000000000000000000000000000000000000000000000000000000000000000000000000000000000000000000000000000000000000000
#0253b0:0000000013000023
#025360:00000000000000000000005300000000
#025371:0000000000000000000000000000000000000000000000000000000013000053
#025321:000000000000000000000000000000000000000000000000000000000000000000000000000000000000000000000000000000000000000000000000000000000000000000000000000000000000000000000000000000000000000000000000000000000000000000000000000000000000000000000000000000000000000000000000000000000000000000000000000000000000000000000000000000000000000000000000000000000000000000000000000000000000000000000000000000000000000000000000000000000000000000000000000000000000000000000000000000000000000000000000000000000000000000000000000000000000000000000000000000000000000000000000000000000000000000000000000000000000000000000000000000000000000000000000000000000000000000000000000000000000000000000000000000000000000000000000000000000000000000000000000000000000000000000000000000000000000000000000000000000000000000000000000000000000000000000000000000000000000000000000000000000000000000000000000000000000000000000000000000000000000000000000000000000000000000000000000000000000000000000000000000000000000000000000000000000000000000000000000000000000000000000000000000000000000000000000000000000000000000000000000000000000000000000000000000000000000000000000000000000000000000000000000000000000000000000000000000000000000000000000000000000000000000000000000000000000000000000000000000000000000000000000000000000000000000000000000000000000000000000000000000000000000000000000000000000000000000000000000000000000000000000000000000000000000000000000000000000000000000000000000000000000000000000000000000000000000000000000000000000000000000000000000000000000000000000000000000000000000000000000000000000000000000000000000000000000000000000000000000000000000000000000000000000000000000000000000000000000000000000000000000000000000000000000000000000000000000000000000000000000000000000000000000000000000000000000000000000000000000000000000000000000000000000000000000000000000000000000000000000000005800000000000000000000000000000000000000000000000000000000
#026321:380000000000000000000000000000000000000000000000000000000058530000000000000000000000000000000000000000000000000000000000000000000000000000000000000000000000000000000000000000000000535700000000000000000000000000000000000000000000000000000000370000000000000000000000000000000000000000000000000000000057000000000000000000000000000000000000000000000000000000000000000000000000000000000000000000000000000000000000000000000000005700000000000000000000000000000000000000000000000000000000370000000000000000000000000000000000000000000000000000000057530000000000000000000000000000000000000000000000000000000000000000000000000000000000000000000000000000000000000000000000535800000000000000000000000000000000000000000000000000000000380000000000000000000000000000000000000000000000000000000058000000000000000000000000000000000000000000000000000000000000000000000000000000000000000000000000000000000000000000000000000000000000000000000000000000000000000000000000000000000000000000000000000000000000000000000000000000000000000000000000000000000000000000000000000000000000000000000000000000000000000000000000000000000000000000000000000000000000000000000000000000000000000000000000000000000000000000000000000000000000000000000000000000000000000000000000000000000000000000000000000000000000000000000000000000000000000000000000000000000000000000000000000000000000000000000000000000000000000000000000000000000000000000000000000000000000000000000000000000000000000000000000000000000000000000000000000000000000000000000000000000000000000000000000000000000000000000000000000000000000000000000000000000000000000000000000000000000000000000000000000000000000000000000000000000000000000000000000000000000000000000000000000000000000000000000000000000000000000000000000000000000000000000000000000000000000000000000000000000000000000000000000000000000000000000000000000000000000000000000000000000000000000000000000000000000000000000000000000000000000
#026361:0000000000530053000000000000000000000000000000000000000000000000
#026371:0000000000000000000000000053000023000000000000000000000000000000
#0263b0:0013
#026370:00000023
#027320:0013
#027350:00000023
#028380:13230000
#0283b0:0053000000000000
#028350:00001323
#028320:0000000000530000
#0323b0:0000000000000000000000000000000000000000000000000000000013000053
#032360:000000000000000000000000000000000000000000000000000000000000000000000000000000000000000000000000000000000000000000000000000000000000000000000000000000000000000000000000000000000000000000000000000000000000000000000000000000000000000000000000000000000000000000000000000000000000000000000000000000000000000000000000000000000000000000000000000000000000000000000000000000000000000000000000000000000000000000000000000000000000000000000000000000000000000000000000000000000000000000000000000000000000000000000000000000000000000000000000000000000000000000000000000000000000000000000000000000000000000000000000000000000000000000000000000000000000000000000000000000000000000000000000000000000000000000000000000000000000000000000000000000000000000000000000000000000000000000000000000000000000000000000000000000000000000000000000000000000000000000000000000000000000000000000000000000000000000000000000000000000000000000000000000000000000000000000000000000000000000000000000000000000000000000000000000000000000000000000000000000000000000000000000000000000000000000000000000000000000000000000000000000000000000000000000000000000000000000000000000000000000000000000000000000000000000000000000000000000000000000000000000000000000000000000000000000000000000000000000000000000000000000000000000000000000000000000000000000000000000000000000000000000000000000000000000000000000000000000000000000000000000000000000000000000000000000000000000000000000000000000000000000000000000000000000000000000000000000000000000000000000000000000000000000000000000000000000000000000000000000000000000000000000000000000000000000000000000000000000000000000000000000000000000000000000000000000000000000000000000000000000000000000000000000000000000000000000000000000000000000000000000000000000000000000000000000000000000000000000000000000000000000000000000000000000000000000000000000000000000000000000005800000000000000000000000000000000000000000000000000000000
#033360:380000000000000000000000000000000000000000000000000000000058530000000000000000000000000000000000000000000000000000000000000000000000000000000000000000000000000000000000000000000000535700000000000000000000000000000000000000000000000000000000370000000000000000000000000000000000000000000000000000000057000000000000000000000000000000000000000000000000000000000000000000000000000000000000000000000000000000000000000000000000005700000000000000000000000000000000000000000000000000000000370000000000000000000000000000000000000000000000000000000057530000000000000000000000000000000000000000000000000000000000000000000000000000000000000000000000000000000000000000000000535800000000000000000000000000000000000000000000000000000000380000000000000000000000000000000000000000000000000000000058000000000000000000000000000000000000000000000000000000000000000000000000000000000000000000000000000000000000000000000000000000000000000000000000000000000000000000000000000000000000000000000000000000000000000000000000000000000000000000000000000000000000000000000000000000000000000000000000000000000000000000000000000000000000000000000000000000000000000000000000000000000000000000000000000000000000000000000000000000000000000000000000000000000000000000000000000000000000000000000000000000000000000000000000000000000000000000000000000000000000000000000000000000000000000000000000000000000000000000000000000000000000000000000000000000000000000000000000000000000000000000000000000000000000000000000000000000000000000000000000000000000000000000000000000000000000000000000000000000000000000000000000000000000000000000000000000000000000000000000000000000000000000000000000000000000000000000000000000000000000000000000000000000000000000000000000000000000000000000000000000000000000000000000000000000000000000000000000000000000000000000000000000000000000000000000000000000000000000000000000000000000000000000000000000000000000000000000000000000000000
#0333a0:0000000000530053000000000000000000000000000000000000000000000000
#0333b0:0000000000000000000000000053000023000000000000000000000000000000
#033321:0000000013000023
#033371:00000000000000000000005300000000
#033360:000000000000000000000000000000000000000000000000000000000000000000000000000000000000000000000000000000000000000000000000000000000000000000000000000000000000000000000000000000000000000000000000000000000000000000000000000000000000000000000000000000000000000000000000000000000000000000000000000000000000000000000000000000000000000000000000000000000000000000000000000000000000000000000000000000000000000000000000000000000000000000000000000000000000000000000000000000000000000000000000000000000000000000000000000000000000000000000000000000000000000000000000000000000000000000000000000000000000000000000000000000000000000000000000000000000000000000000000000000000000000000000000000000000000000000000000000000000000000000000000000000000000000000000000000000000000000000000000000000000000000000000000000000000000000000000000000000000000000000000000000000000000000000000000000000000000000000000000000000000000000000000000000000000000000000000000000000000000000000000000000000000000000000000000000000000000000000000000000000000000000000000000000000000000000000000000000000000000000000000000000000000000000000000000000000000000000000000000000000000000000000000000000000000000000000000000000000000000000000000000000000000000000000000000000000000000000000000000000000000000000000000000000000000000000000000000000000000000000000000000000000000000000000000000000000000000000000000000000000000000000000000000000000000000000000000000000000000000000000000000000000000000000000000000000000000000000000000000000000000000000000000000000000000000000000000000000000000000000000000000000000000000000000000000000000000000000000000000000000000000000000000000000000000000000000000000000000000000000000000000130000000000000000000000000000000000000000000000000000000000000000000000000000000000000000000000000000000000000000000000000000000000000000000000000000000000000000000000000000000000535800000000000000000000000000000000000000000000000000000000
#034360:380000000000000000000000000000000000000000000000000000000058000000000000000000000000000000000000000000000000000000000000000000000000000000000000000000000000000000000000000000000000000000000000000000000000000000000000000000000000000000000000000000000000000000000000000000000000000000000000000000000000000000000000000000000000000000000000000000000000000000000000000000000000000000000000000000000000000000000000000000000000000000000000000000000000000000000000000000000000000000000000000000000000000000000000000000000000000000000000000000000000000000000000000000000000000000000000000000000000000000000000000000000000000000000000000000000000000000000000000000000000005800000000000000000000000000000000000000000000000000000000380000000000000000000000000000000000000000000000000000000058530000000000000000000000000000000000000000000000000000000000000000000000000000000000000000000000000000000000000000000000000000000000000000000000000000000000000000000000000000000000230000000000000000000000000000000000000000000000000000000000000000000000000000000000000000000000000000000000000000000000000000000000000000000000000000000000000000000000000000000000000000000000000000000000000000000000000000000000000000000000000000000000000000000000000000000000000000000000000000000000000000000000000000000000000000000000000000000000000000000000000000000000000000000000000000000000000000000000000000000000000000000000000000000000000000000000000000000000000000000000000000000000000000000000000000000000000000000000000000000000000000000000000000000000000000000000000000000000000000000000000000000000000000000000000000000000000000000000000000000000000000000000000000000000000000000000000000000000000000000000000000000000000000000000000000000000000000000000000000000000000000000000000000000000000000000000000000000000000000000000000000000000000000000000000000000000000000000000000000000000000000000000000000000000000000000000000000000000000000000000
#0343b0:0053005300000000005300530000000000000000000000000000000000000000
#034370:000000000000000000000000000000000000000000000000000000000000000000000000000000000000000000000000000000000000000000000000000000000000000000000000000000000000000000000000000000000000005700000000000000000000000000000000000000000000000000000000370000000000000000000000000000000000000000000000000000000057530000000000000000000000000000000000000000000000000000000000000000000000000000000000000000000000000000000000000000000000535700000000000000000000000000000000000000000000000000000000370000000000000000000000000000000000000000000000000000000057000000000000000000000000000000000000000000000000000000000000000000000000000000000000000000000000000000000000000000000000000000000000000000000000000000000000000000000000000000000000000000000000000000000000000000000000000000000000000000000000000000000000000000000000000000000000000000000000000000000000000000000000000000000000000000000000000000000000000000000000000000000000000000000000000000000000000000000000000000000000000000000000000000000000000000000000000000000000000000000000000000000000000000000000000000000000000000000000000000000000000000000000000000000000000000000000000000000000000000000000000000000000000000000000000000000000000000000000000000000000000000000000000000000000000000000000000000000000000000000000000000000000000000000000000000000000000000000000000000000000000000000000000000000000000000000000000000000000000000000000000000000000000000000000000000000000000000000000000000000000000000000000000000000000000000000000000000000000000000000000000000000000000000000000000000000000000000000000000000000000000000000000000000000000000000000000000000000000000000000000000000000000000000000000000000000000000000000000000000000000000000000000000000000000000000000000000000000000000000000000000000000000000000000000000000000000000000000000000000000000000000000000000000000000000000000000000000000000000000000000000000000000000000000000000000000000000000000000000000000000
#034321:0013
#034361:00000023
#0353b1:0013
#035381:00000023
#040321:00000000000000001434343400000000
#0403a1:00000024
#044321:0000001300000000
#044361:0000000000230000
#052321:0000001c
#053381:26
#0573b1:13
#057381:00230000
#057320:13
#057350:00230000
#059370:13
#0593b0:00230000
#059321:13
#059361:00230000
#060321:13
#060351:00230000
#0803a1:00000000000000001434343400000000
#080321:00000024
#0843b1:0000001300000000
#084371:0000000000230000
#092321:0000001c
#093321:26
#097321:1c
#098371:00000000000000000000000000000000000000000000000000000000000000005200000000000000005200005200000022000000000000000000000000000000
#098351:0000000000000000000000000000000000000000005200000000000000000000
#098391:00000000000000000000000000000000000000000000000000000000000000000000000000000000000000520000000000000000000000000000000000000000
