This file was generated by Ched 2.7.0.0.
#TITLE ""
#ARTIST ""
#DESIGNER ""
#DIFFICULTY 0
#PLAYLEVEL
#SONGID ""
#WAVE ""
#WAVEOFFSET 0
#JACKET ""
#REQUEST "ticks_per_beat 480"
#00002: 4
#BPM01: 185
#00008: 01
#TIL00: ""
#HISPEED 00
#MEASUREHS 00
#00019:1414
#00013:00140014
#00114:00140014
#0011a:0014
#00119:24
#00218:1414
#00212:00140000
#00318:00140014
#00312:1414
#00414:1414
#0041a:00140000
#00514:00140014
#0051a:1414
#00618:1414
#00612:00140000
#00818:14
#00814:00140000
#0081a:0024
#00812:00000024
#0091a:1414
#00914:00140014
#00910:41
#01112:1414
#01118:00140014
#0131a:14
#01412:14
#0151a:14
#01514:00140000
#01518:0014
#01512:00000014
#01712:1414
#01718:00140014
#0191a:1414
#01914:00140014
#02112:14
#0221a:14
#02312:14
#02318:00140000
#02314:0014
#0231a:00000014
#0251a:1414
#02514:00140000
#02510:41
#02612:1414
#02618:00140000
#02714:00140014
#02718:1414
#0281a:14
#02812:0014
#0291a:1414
#02914:00140000
#03012:1414
#03018:00140000
#03312:1414
#03318:00140000
#0341a:1414
#03414:00140000
#03518:00140014
#03514:1414
#03612:14
#0361a:0014
#03718:00140000
#03712:2414
#03814:00140000
#0381a:2414
#03918:00140000
#0391a:00000014
#03912:24
#03914:0024
#04114:00140000
#04118:0014
#04112:00000014
#0411a:24
#04110:41
#04218:1414
#04212:00140000
#04214:00000014
#0431a:14
#04312:0014
#04318:00000014
#04414:1414
#0441a:00140000
#04418:00000014
#04512:14
#0451a:14
#04518:0014
#04514:00000014
#04618:1414
#04614:00140000
#04912:0014
#04918:24000014
#05014:14000014
#0501a:0014
#05118:14000014
#05114:0014
#05314:00140000
#05318:0014
#05312:00000014
#0531a:24
#05414:00140000
#05418:0014
#05412:00000014
#0541a:24
#05714:0014
#05718:26000014
#05710:41
#05814:1414
#05818:00140014
#0591a:14
#05912:14
#05918:0014
#05914:00000014
#06018:1414
#06014:00140014
#06112:14
#0611a:14
#06114:0014
#06118:00000014
#0621a:14
#06212:14
#06218:0014
#06214:00000014
#06312:14
#0631a:14
#06314:0014
#06318:00000014
#06412:14
#0641a:00140000
#06414:0014
#06418:00000014
#06518:00140000
#06514:0014
#06512:24
#0661a:14
#06614:00140000
#06618:0014
#06712:14
#06718:00140000
#06714:0014
#0671a:00000014
#06814:1414
#0681a:00140000
#06818:00000014
#06918:0014
#06914:00000014
#06912:24
#07014:0014
#07018:00000014
#0701a:24
#07314:14
#07316:0014
#0731f:11
#07418:14
#07416:0014
#07514:14
#07516:0014
#07618:14
#07616:0014
#07718:00140000
#07712:2414
#07814:00140000
#0781a:2414
#08118:00140000
#08114:0014
#0811a:00000014
#08112:24
#0811f:21
#08214:1414
#0821a:00140000
#08218:00000014
#08312:14
#0831a:0014
#08314:00000014
#08310:41
#08418:1414
#08412:00140000
#08414:00000014
#0851a:14
#08512:14
#08514:0014
#08518:00000014
#08614:1414
#08618:00140000
#0891a:0014
#08914:24000014
#09018:14000014
#09012:0014
#09114:14000014
#09118:0014
#09318:00140000
#09314:0014
#0931a:00000014
#09312:24
#09418:00140000
#09414:0014
#0941a:00000014
#09412:24
#00713:2424
#00719:2424
#01615:2626
#02415:2626
#04016:24
#04712:2424
#0471a:2424
#04818:2424
#04814:00240024
#05214:24
#05518:26
#05512:0026
#05618:2626
#05612:00260026
#07112:24
#0711a:0024
#07110:41
#07214:2424
#07218:00240024
#07913:2424
#07919:2424
#08013:24
#08019:24
#0871a:2424
#08712:2424
#08814:2424
#08818:00240024
#09218:24
#09512:26
#09518:0026
#09612:2626
#09618:00260026
#0311a:0034343434343434
#00159:14
#0135a:54
#01452:64
#02152:64
#0225a:54
#03256:0000001400000000
#05254:0014
#09258:0014
#0103a0:14
#010390:00340000
#010380:0024
#012320:14
#012330:00340000
#012340:0024
#0133a0:14
#013380:0024
#014320:14
#014340:0024
#018320:14
#018330:00340000
#018340:0024
#0203a0:14
#020390:00340000
#020380:0024
#021320:14
#021340:0024
#0223a0:14
#022380:0024
#0313a0:1434343434343434
#032360:3400002400000000
#052340:143434240000
#092380:143434240000
#097320:16
#098320:00000026
