This file was generated by Ched 2.6.4.0.
#TITLE ""
#ARTIST ""
#DESIGNER ""
#DIFFICULTY 0
#PLAYLEVEL
#SONGID ""
#WAVE ""
#WAVEOFFSET 0
#JACKET ""
#REQUEST "ticks_per_beat 480"
#00002: 4
#BPM01: 174
#00008: 01
#TIL00: ""
#HISPEED 00
#MEASUREHS 00
#01114:14
#0091a:14
#0081a:14
#00810:41
#01818:14
#01912:14
#01014:14
#0161a:14
#01714:14
#0501a:14
#0501f:11
#00019:14
#00213:14
#02418:14
#0251a:14
#02814:14
#02912:14
#03412:16
#03418:0016
#03512:16
#03518:0016
#03818:16
#03812:0016
#03918:16
#03912:0016
#04218:16
#04212:0016
#04318:1616
#04612:16
#04618:0016
#04712:1616
#05112:14
#05218:14
#05314:14
#05318:0014
#05412:14
#0551a:14
#06012:0016
#06018:26
#0601f:21
#06412:16
#06418:0016
#06318:1616
#06812:0016
#06818:26
#06918:16
#06912:0016
#07218:16
#07212:0016
#07318:16
#07312:0016
#03612:1616
#03218:2616
#03210:41
#07018:1616
#05614:14
#05718:14
#07112:1616
#07712:0016
#07718:16
#08118:0016
#08112:16
#07818:1616
#07912:1616
#08612:16
#08618:0016
#08712:16
#08718:0016
#08812:16
#08818:0016
#09013:0014
#09019:0014
#06212:1616
#06618:1616
#00119:14
#00313:14
#06712:1616
#08212:1616
#08318:1616
#06110:41
#07610:41
#02010:41
#04410:41
#004390:14
#005390:24
#006330:14
#007330:24
#012380:14
#013380:24
#014320:14
#015320:24
#0203a0:14
#0213a0:24
#022340:14
#023340:24
#026380:14
#027380:24
#030340:14
#031340:0024
#033380:1626
#037320:1626
#040380:1626
#041320:1626
#044320:1626
#045380:1626
#048380:1626
#049320:1626
#058320:14
#059320:3424
#061380:1626
#065320:1626
#074380:1600000000000036
#075380:0026
#076320:1626
#080380:1626
#084320:1626
#085380:1626
