This file was generated by Ched 2.6.4.0.
#TITLE ""
#ARTIST ""
#DESIGNER ""
#DIFFICULTY 0
#PLAYLEVEL
#SONGID ""
#WAVE ""
#WAVEOFFSET 0
#JACKET ""
#REQUEST "ticks_per_beat 480"
#00002: 4
#BPM01: 174
#00008: 01
#TIL00: ""
#HISPEED 00
#MEASUREHS 00
#00315:0000000000001313
#00318:00000000000000000000000000130013
#00314:12
#0031a:1200121200000000
#00312:0000000000130000
#0031b:0000000000130000
#00718:0000001300001313
#00715:00000000000000130000000000130013
#0071b:0013000000000000
#00712:00130000
#00815:0013000000130000
#0081b:0000131300000000
#00818:2300000013001313
#00812:0000131300001300
#00810:41
#00214:1200121200000000
#00218:00000012
#0021a:12
#02618:00130013
#02615:0000001300130000
#0261b:0013000013000013
#02612:0013000013000013
#0271b:00131300
#02718:0000001300000000
#02715:0013000013000000
#02712:00130013
#04015:0000001300001300
#0401b:0000130013000013
#04012:0013000000000000
#04018:0000000000130000
#04215:0013001300130000
#04212:0000000013000013
#04218:00130013
#0421b:0000000000000013
#0491b:0013000000000000
#04918:00130000
#04915:0000001300000000
#04912:0000000000000000000000000000000023333333333333330000000000000000
#03112:0000000024000013
#03117:0000000000000013
#03115:0023002300000000
#03118:00230000
#0311a:0024
#03212:00130013
#03219:0000001300000000
#03218:00000013
#0321b:1300000013000013
#03215:0000000013000013
#03216:23
#03210:41
#03318:13001313
#03315:0000000000130013
#0331b:0000000000130000
#03313:0000000013131313131313131313131300000000000000000000000000000000
#03312:00000000000000000013000000130000001300000013000000130000001300000000000000000000000000000000000000000000000000000000000000000000
#03314:00000000000000000000001300000013000000130000001300000013000000130000000000000000000000000000000000000000000000000000000000000000
#0351b:00130000
#03515:0000001300001313
#03512:0013000013000000
#03518:00000000000000001300000000130000
#03519:33
#04112:0000130013000013
#04118:0000001300000000
#0411b:0013000013001300
#0041b:0000131300000000
#00418:00000013
#00515:0000131300001300
#0051b:00000013
#00618:0000131300001300
#00612:00000013
#05015:00130000
#05018:0000001300001300
#0501f:11
#05115:0013001300001300
#05112:0000000000000013
#0511b:0013
#05118:0000130000130000
#05212:1300001313001300
#05218:0013000000001300
#0521b:1300130013000013
#05215:0000130000130013
#05315:0000001300000000
#05318:0013000013000000
#05312:00000024
#0531a:00000024
#05415:0013131300001300
#05418:0000000000130000
#0541b:0000000013000013
#05412:0013
#03415:0013000000000000
#03418:0000001300000000
#03412:1300130013000013
#0341b:1300130013001313
#03414:0000000000330000
#04812:0000000013000013
#04816:00000013
#0481a:00000000000000000000001300000000
#04814:0000000000130000
#04818:00001300000000000013000000000000
#0481b:0000001300000013
#04815:00130000
#05518:0013001300000000
#05512:00131300
#0551b:00130013
#05515:0000001300130000
#01112:0000001300001300
#0111b:00130013
#01115:00131300
#01118:0013001300130000
#0281b:13000013
#02815:0013
#02818:00130000
#02812:13
#00918:00131313
#00915:0000001300130000
#00912:0000130000001313
#0091b:0013001300000000
#0141b:0013130000130013
#01418:0000001300001300
#01415:00131300
#01412:0000001300001300
#01515:0000001300001313
#01518:00001300130000000000130000130013
#01512:00131300
#0151b:0000001300000000
#0241b:0000130000130013
#02412:2300001300001300
#02415:0000130000000013
#02418:2313
#0251b:0013000000130013
#02512:0000001300000013
#02918:0000130000001313
#02912:13
#02915:00000000000000001300000000130013
#0431b:00131300
#04312:00131300
#04315:0013000000000000
#04318:0000001300001323
#00016:0000121200000000
#00014:00000012
#0011a:0000121200000000
#00116:00000012
#01312:00000013
#01318:0000000000000013
#01015:0013130013001300
#01018:0000001300130000
#0101b:0000130000001313
#01012:0000001300000000
#01618:0013000000130000
#01615:1300000013001313
#01612:0000131300000000
#0161b:0000131300001300
#02012:1300001300000000
#02018:0013001300130000
#0201b:13130013
#02015:00000013000000001300000013001300
#02010:41
#0191b:0000001300000000
#01912:00130000
#01918:0000130013001313
#01915:00001300000013000000000000130000
#01715:00131313
#01718:0000001300130000
#0171b:0000130000001313
#01712:0013001300000000
#02212:0013130000130023
#02215:0000001300001300
#02218:00131300
#0221b:0000001300001300
#0211b:00000013
#02115:0000000000000013
#01818:0013130013001300
#01815:0000001300130000
#01812:0000130000001313
#0181b:0000001300000000
#02315:0000000023001313
#02318:00000000000000000000000000130000
#02312:0023000000000000
#02313:00230000
#02314:0000002300000000
#03615:00000013
#03612:1300000013000013
#0361b:00130013
#03617:13
#03614:0000001300000000
#03618:0000000013000013
#03715:13001313
#03718:0000000000130013
#03712:0000000000130000
#0371a:0000000013131313131313131313131300000000000000000000000000000000
#0371b:00000000000000000013000000130000001300000013000000130000001300000000000000000000000000000000000000000000000000000000000000000000
#03719:00000000000000000000001300000013000000130000001300000013000000130000000000000000000000000000000000000000000000000000000000000000
#03812:1300130013001313
#03818:0013000000000000
#03815:0000001300000000
#0381b:1300130013000013
#0391b:0013000013000000
#03918:00130013
#03915:0000001300000023
#03912:0013
#05615:1313000000000000
#05618:00130013000000001400140000000000
#05614:00000000000000000014001400000000
#05713:1515000000000000
#05718:0000150000001500000000000000000026000000260000002636360000000000
#05712:00000000000000000026002600000000
#05717:0000000000000000000000000000000000000000000000000000003600000000
#05716:0000000000000000000000000000000000000000000000000000000036360000
#05715:0000000000000000000000000000000000000000000000000000000000003636
#05812:12120000
#0581c:00001212
#04418:0000001300001300
#04412:0000130013000013
#0441b:0013000000000000
#04415:0000000000130000
#04410:41
#0451b:0000130013000013
#04515:0000001300000000
#04512:0013000013000000
#04518:00000013
#04618:0013001300130000
#0461b:0013
#04615:00130013
#04612:0000000013000013
#04715:0013001300130000
#04712:0013
#04718:00130013
#0471b:0000000013000013
#05918:0000000000000013
#05912:0000000000000013
#05917:1212121200000000
#05914:0012
#0591a:0012
#06012:0000130013000013
#06018:0013001300000013
#06015:23000013
#0601b:13
#0601f:21
#06118:00001313
#06115:0000000000130013
#0611b:1300000000130000
#06113:0000000013131313131313131313131300000000000000000000000000000000
#06112:00000000000000000013000000130000001300000013000000130000001300000000000000000000000000000000000000000000000000000000000000000000
#06114:00000000000000000000001300000013000000130000001300000013000000130000000000000000000000000000000000000000000000000000000000000000
#06110:41
#06212:1300000000001313
#06215:0013000000000000
#06218:0000001313000013
#0621b:0000000000130000
#0631b:0013000013000000
#06318:00000000130000000000000000130000
#06315:1300001300001313
#06312:00131300
#06815:13000013
#06818:00131300
#0681b:2300001300130013
#06812:0013000000000013
#06915:1300001300001300
#06918:0000130000130013
#06912:0013
#0691b:0013000013000000
#07012:1300000000001313
#07015:0013000000000000
#07018:0000001300130013
#0701b:0013
#0711b:0013000013000000
#07118:00000000130000000000000000130000
#07115:1300001300001313
#07112:00131300
#0641b:0000130013000013
#06415:0013001300000013
#06418:13000013
#06412:13
#06515:00001313
#06518:0000000000130013
#06512:1300000000130000
#0651a:0000000013131313131313131313131300000000000000000000000000000000
#0651b:00000000000000000013000000130000001300000013000000130000001300000000000000000000000000000000000000000000000000000000000000000000
#06519:00000000000000000000001300000013000000130000001300000013000000130000000000000000000000000000000000000000000000000000000000000000
#0661b:1300000000001313
#06618:0013000000000000
#06615:0000001313000013
#06612:0000000000130000
#06712:0013000013000000
#06715:00000000130000000000000000130000
#06718:1300001300001313
#0671b:00131300
#07518:0012002200000000
#07516:00122200
#0751b:0000000000000013
#07512:0000000000000023
#08418:00131313
#0841b:0013000000130013
#08415:13000000000013000013000000130000
#08412:00000000130000000000001300000000
#0851b:0013000000000013
#08518:0000130000131300
#08515:0000001300000023
#08512:0013
#08612:0013000000230013
#08618:0000001300230023
#08615:00132323
#0861b:00002323
#08718:00132323
#08715:0000001300230023
#0871b:0013000000230013
#08712:00002323
#08812:0013000023000000
#08815:00130000
#08818:00000000000013000023000000000000
#08814:0000000000230000
#08816:00000023
#0881a:00000000000000000000002300000000
#08916:0000000000000012
#0891a:0000000000000012
#09016:0012001200000000
#09014:0012
#09018:00121200
#0901a:0012000000000000
#07415:0000001300130013
#0741b:13000000000000000013000000130000
#07412:00001313
#07418:00001300000000000000001300000000
#07218:13000013
#07215:00131300
#07212:2300001300130013
#0721b:0013000000000013
#07318:1300001300001300
#07315:0000130000130013
#0731b:0013
#07312:0013000013000000
#07618:1300130000001313
#07615:0013001313000000
#0761b:0013
#07612:0000000000130013
#07610:41
#0771b:1300130000000013
#07718:0000001300000000
#07712:0013000000001300
#07715:0000130013000013
#07818:0013001300000013
#07815:00001313
#07812:1300130000130013
#0781b:00130000
#07912:0000130013000013
#07915:1300001300131300
#07918:00000000130000000000001300000000
#0791b:0013000000000023
#08015:1300130000001313
#08018:0013001313000000
#08012:0013
#0801b:0000000000130013
#08112:1300130000000013
#08115:0000001300000000
#0811b:0013000000001300
#08118:0000130013000013
#08215:0013001300000013
#08218:00001313
#0821b:1300130000130013
#08212:00130000
#08315:00001313
#08318:0013001300000013
#08312:1300130000130013
#0831b:00130000
#0121b:1300001300000000
#01215:0013001300130000
#01212:13130013
#01218:00000013000000001300000013001300
#0301b:2300130000130000
#03015:0000130000130000
#03012:2300002300000023
#03018:0000002300000023
#0325b:5300000013000063
#03256:13
#02858:00530000
#02855:0053
#0285b:00000053
#0245b:0000000000230013
#02452:0000002300000000
#02455:0000630000000063
#02458:0053
#02552:0013005300000000
#02558:0000001300000000
#02555:0000000000130000
#0255b:0063000000130000
#02958:00630000
#02952:63
#02955:0053
#00858:0000000000000013
#00952:0000000000000013
#0105b:0000000000000013
#01358:0000000000000013
#0145b:0000000000000013
#01655:0000000000000013
#0175b:0000000000000013
#01852:0000000000000013
#02155:0000000000000013
#03354:00000000000000000000002300000023000000230000002300000023000000230000000000000000000000000000000000000000000000000000000000000000
#03352:00000000000000000023000000230000002300000023000000230000002300000000000000000000000000000000000000000000000000000000000000000000
#03353:0000000053535353535353535353535300000000000000000000000000000000
#0335b:0043000000000000
#03358:23
#03652:6300000013000053
#03657:13
#0375a:0000000063636363636363636363636300000000000000000000000000000000
#0375b:00000000000000000023000000230000002300000023000000230000002300000000000000000000000000000000000000000000000000000000000000000000
#03759:00000000000000000000002300000023000000230000002300000023000000230000000000000000000000000000000000000000000000000000000000000000
#03755:23
#03752:0033000000000000
#0385b:0063
#03852:0000000000000053
#03955:0000000000000013
#0405b:0000000000000013
#04152:0000000000000013
#04452:0000000000000013
#04358:0000000000000013
#0455b:0000000000000013
#04652:0000000000000013
#0475b:0000000000000013
#06052:0013
#0605b:63
#06058:0023000000000053
#06055:13
#06153:0000000053535353535353535353535300000000000000000000000000000000
#06152:00000000000000000023000000230000002300000023000000230000002300000000000000000000000000000000000000000000000000000000000000000000
#06154:00000000000000000000002300000023000000230000002300000023000000230000000000000000000000000000000000000000000000000000000000000000
#06158:0033000000000000
#0615b:23
#06252:0000000000000053
#06258:0053
#0625b:0000000000230000
#06355:23
#07052:0000000000000053
#0705b:0063
#07058:0000000000230000
#07155:23
#0645b:0013
#06452:53
#06455:0023000000000063
#06458:13
#0655a:0000000063636363636363636363636300000000000000000000000000000000
#0655b:00000000000000000023000000230000002300000023000000230000002300000000000000000000000000000000000000000000000000000000000000000000
#06559:00000000000000000000002300000023000000230000002300000023000000230000000000000000000000000000000000000000000000000000000000000000
#06552:23
#06555:0043000000000000
#0665b:0000000000000063
#06655:0063
#06652:0000000000230000
#06758:23
#0845b:0000000000000013
#08455:23
#0855b:0000000000000053
#08555:0000000000000013
#08652:0000000000000063
#08658:0000000000000013
#0875b:0000000000000063
#08755:0000000000000013
#08856:00000013
#0275b:0063
#05358:0053000000000000
#05352:00000014
#0535a:00000014
#05255:0000000000000063
#06852:0023000013000053
#06858:0053
#0685b:1300000000230000
#06855:63
#06955:23
#06952:0033000000000000
#07455:0000000000000013
#07255:0063
#07252:1300000000230000
#07258:53
#0725b:0023000013000063
#07358:23
#0735b:0043000000000000
#0765b:0013
#07652:0000000000230013
#07658:2300000000000053
#07655:0063
#0775b:2300000000000013
#07755:0000000000000063
#0755b:0000000000000063
#07552:0000000000000013
#07852:2300000000000053
#07858:0000000000000013
#07955:23
#07952:0000000000000053
#0795b:0000000000000013
#08052:0013
#0805b:0000000000230013
#08055:2300000000000063
#08058:0053
#08152:2300000000000013
#08158:0000000000000053
#0825b:2300000000000013
#08255:0000000000000063
#08352:2300000000000053
#08358:0000000000000013
#04955:00000046
#04952:0023
#05552:00005333
#0555b:00634343
#05555:0000000000230000
#05558:0000002300000000
#03452:0053
#0345b:0000000000000063
#01258:0000000000000013
#02055:0000000000000013
#0003a0:12220000
#000380:00001222
#001360:12220000
#004350:13230000
#004320:00001323
#005380:13230000
#006350:13230000
#007350:0000000000132300
#008320:0000000000000013
#009350:0023000000000000
#009380:0000000000000013
#0103b0:0023000000000000
#010350:0000000000000013
#011320:0023000000000000
#012320:0000000000000013
#013350:0023000000000000
#013381:0013230000000000
#013320:0000132300000000
#0133b1:0000001323000000
#013350:0000000013230000
#013381:0000000000132300
#013321:0000000000000013
#014351:0023000000000000
#014351:0000000000000013
#015321:0023000000000000
#0163b1:0000000000000013
#017381:0023000000000000
#017351:0000000000000013
#018321:0023000000000000
#018381:0000000000000013
#0193b1:0023000000000000
#019351:0000000000132300
#0203b1:0000000000000013
#021381:0023000000000000
#021350:0013230000000000
#0213b1:0000132300000000
#021320:0000001323000000
#021381:0000000013230000
#021350:0000000000132300
#0213b0:0000000000000013
#022380:0023000000000000
#022380:0000000000000013
#0233b0:0023
#023380:0000000000132300
#024350:00132300
#024320:0000005300000000
#024381:00001323
#0243b1:0000000000530000
#024351:0000000000000013
#025321:0023000000000000
#0253b0:0013000000000000
#025380:0000002300000000
#025321:0000001300000000
#025351:0000000000230000
#0273b1:0013
#027381:00000023
#028381:00130000
#0283b1:0023
#028350:0013
#028320:00000023
#0283b1:00000013
#029381:23
#029320:13
#029350:00230000
#029381:00130000
#0293b1:0023
#029350:0013
#029320:00000023
#0323b0:13
#032370:00230000
#0323b0:0000000000000013
#033380:53
#0333b0:0023000000000000
#033331:0000000013535353535353535353535323000000000000000000000000000000
#033321:00000000000000000053000000530000005300000053000000530000005300000000000000000000000000000000000000000000000000000000000000000000
#033341:00000000000000000000005300000053000000530000005300000053000000530000000000000000000000000000000000000000000000000000000000000000
#034321:0013
#034341:0000000000330000
#034361:00000023
#0343b1:0000000000000013
#035391:33
#035371:0023000000000000
#035381:0000000000132300
#036321:13
#036361:00230000
#036321:0000000000000013
#037351:53
#037321:0023000000000000
#0373a0:0000000013535353535353535353535323000000000000000000000000000000
#0373b0:00000000000000000053000000530000005300000053000000530000005300000000000000000000000000000000000000000000000000000000000000000000
#037390:00000000000000000000005300000053000000530000005300000053000000530000000000000000000000000000000000000000000000000000000000000000
#0383b0:0013
#038370:00000023
#038320:0000000000000013
#039360:0023000000000000
#0393b0:0000000000000013
#040370:0023000000000000
#040320:0000000000000013
#041360:0023000000000000
#041370:0000000000000013
#0423b0:0023000000000000
#043350:0000000000132300
#043320:0000000000000013
#044360:0023000000000000
#0443b0:0000000000000013
#045370:0023000000000000
#045360:0000000000000013
#046320:0023000000000000
#046370:0000000000000013
#0473b0:0023000000000000
#047320:0000000000000013
#048350:0023000000000000
#049320:0000000000000000000000000000000013333333333333330000000000000000
#049350:00000026
#0503b0:13
#050380:00230000
#050320:0013
#050350:00000023
#050380:0000000000000013
#051380:0023000000000000
#052350:0000000000000013
#053320:0023000000000000
#053381:0013000000000000
#0533b1:0000002300000000
#054321:0000000000000013
#055351:0023000000000000
#0553b1:00132300
#055381:0000005300000000
#055320:00001323
#055350:0000000000530000
#056350:00000000133333332300000000000000
#056380:00000000000000000000000014343434
#057380:24
#057330:00000000153535352500000000000000
#057380:0000000000000000000000000000000000000000000000001636360000000000
#057370:0000000000000000000000000000000000000000000000000000003600000000
#057360:0000000000000000000000000000000000000000000000000000000036360000
#057350:0000000000000000000000000000000000000000000000000000000000003636
#058350:26
#0603b0:13230000
#060380:0053000000000000
#060380:00001323
#060380:0000000000000013
#0613b0:53
#061380:0023000000000000
#061331:0000000013535353535353535353535323000000000000000000000000000000
#061321:00000000000000000053000000530000005300000053000000530000005300000000000000000000000000000000000000000000000000000000000000000000
#061341:00000000000000000000005300000053000000530000005300000053000000530000000000000000000000000000000000000000000000000000000000000000
#0623b1:1333230000000000
#062320:0000133323000000
#062381:00001323
#0623b1:0000000000530000
#062321:0000000000000013
#063351:53
#063321:0023000000000000
#063381:0000000000132300
#064321:13230000
#064351:0053000000000000
#064351:00001323
#064351:0000000000000013
#065321:53
#065351:0023000000000000
#0653a0:0000000013535353535353535353535323000000000000000000000000000000
#0653b0:00000000000000000053000000530000005300000053000000530000005300000000000000000000000000000000000000000000000000000000000000000000
#065390:00000000000000000000005300000053000000530000005300000053000000530000000000000000000000000000000000000000000000000000000000000000
#066320:1333230000000000
#0663b1:0000133323000000
#066350:00001323
#066320:0000000000530000
#0663b0:0000000000000013
#067380:53
#0673b0:0023000000000000
#068350:13230000
#068320:0053000000000000
#068320:0000001323000000
#068381:00001323
#0683b1:0000000000530000
#068321:0000000000000013
#069351:53
#069321:0023000000000000
#0703b1:13
#070381:0033230000000000
#070350:00130000
#070320:0000003323000000
#0703b1:00001323
#070381:0000000000530000
#070321:0000000000000013
#071351:53
#071321:0023000000000000
#071381:0000000000132300
#072381:13230000
#0723b1:0053000000000000
#0723b1:0000001323000000
#072350:00001323
#072320:0000000000530000
#0723b0:0000000000000013
#073380:53
#0733b0:0023000000000000
#074320:13
#074350:0033230000000000
#074381:00130000
#0743b1:0000003323000000
#0753b1:0000000000000013
#076381:53
#0763b1:0023000000000000
#076351:00001323
#076321:0000000000530000
#076381:0000000000000013
#0773b1:53
#077381:0023000000000000
#0773b1:0013
#077381:00000023
#077351:0000000000000013
#078321:53
#078351:0023000000000000
#0783b1:00001323
#078381:0000000000330000
#078321:0000000000000013
#079351:53
#079321:0023000000000000
#079381:0000000013230000
#079321:0000000000000013
#080351:53
#080321:0023000000000000
#080381:00001323
#0803b1:0000000000530000
#080351:0000000000000013
#081321:53
#081351:0023000000000000
#081321:0013
#081351:00000023
#081381:0000000000000013
#0823b1:53
#082381:0023000000000000
#082321:00001323
#082351:0000000000330000
#082351:0000000000000013
#083321:53
#083351:0023000000000000
#0833b1:00001323
#083381:0000000000330000
#083321:0000000000000013
#084351:53
#084321:0023000000000000
#0853b1:0000000000000013
#086381:0023000000000000
#086321:0000000000000013
#087351:0023000000000000
#0873b1:0000000000000013
#088381:0023000000000000
