This file was generated by Ched 2.6.4.0.
#TITLE ""
#ARTIST ""
#DESIGNER ""
#DIFFICULTY 0
#PLAYLEVEL
#SONGID ""
#WAVE ""
#WAVEOFFSET 0
#JACKET ""
#REQUEST "ticks_per_beat 480"
#00002: 4
#BPM01: 174
#00008: 01
#TIL00: ""
#HISPEED 00
#MEASUREHS 00
#00315:00000013
#00318:0000001200000013
#00314:12
#00316:00120000
#00312:0000000000130000
#0031b:0000000000130000
#0031a:12
#00718:0000001300001313
#0071b:0013000000000000
#00715:00000000130000000000000000130013
#00712:0000000000130000
#00812:0013000000000000
#0081b:0013
#00815:0000130000130000
#00818:2300001300001300
#00810:41
#00218:00120012
#00216:0000001200000000
#0021a:12
#00214:12
#0271b:00130000
#02718:0000001300000000
#02715:0013000013000000
#0491b:0013000000000000
#04915:00000000130000000033000000000000
#04918:0000001300000000
#04912:0023
#04916:0000000000000000000000000000000000000033343434340000000000000000
#04914:0000000000000000000000000000000000330000000000000000000000000000
#00412:13
#00415:0000001300000000
#00418:00130000
#00518:0000001300000000
#00515:00130013
#0051b:13
#0061b:13
#00618:00130013
#00615:0000001300000000
#00612:13
#0261b:0013000000000013
#02612:0013
#02615:00130013
#02618:0000001300130000
#04115:00130000
#04118:0013001300000000
#0411b:0013
#04112:0013
#05015:0000001300000000
#0501f:11
#05114:00000013
#05117:0000000000000013
#05116:0013
#05119:0000000000130000
#0511b:0000001300000000
#05212:13000013
#05217:0013000000000000
#05219:0000001300000000
#05216:0013
#0521b:0000000000130000
#05214:00130000
#05418:0000130000130000
#05415:0013001300001300
#0541b:0013
#05412:0000000000000013
#04812:0000000013000013
#04812:0013
#04818:0000001300001300
#04815:0000130000130000
#0481b:0000000000000013
#0141b:0000000000130000
#01418:0000001300001300
#01415:00131300
#0251b:0000000000000013
#02515:0000000000000013
#02518:0000001300000000
#02512:0000001300000000
#04315:00130000
#0431b:0013
#04312:0000000013000023
#04318:0000001300000000
#00018:00120000
#00016:0000001200000000
#00014:12
#00118:0000001200000000
#00116:00120012
#0011a:12
#01312:00000013
#01315:00131300
#0131b:0000001300000000
#01318:0000000000130000
#05318:0013
#05315:0000001300000000
#05312:00000023
#0531b:00000023
#01015:00131300
#01018:0000001300130000
#0101b:00000013
#01618:0013000000130000
#01612:00130013
#01615:0013
#0161b:0000001300000013
#02812:1313
#0281b:13130013
#02815:00130013
#02818:0013
#08515:0013000013000000
#0851b:00130000
#08518:0000001300000000
#08512:0000000000000023
#08815:00132300
#0881b:0000001300002300
#08818:0013000000230000
#08812:00000023
#0891a:0000000000000012
#08914:0000000000000012
#09015:0012000000000000
#09016:0000001200000000
#09018:0012
#09019:00120000
#02415:0000130000001313
#0241b:2300130000001313
#02412:2313
#02418:0013
#05518:00131300
#05515:0000001300000000
#0121b:0000001300000000
#01215:0013130000130000
#01218:00000013000000001300000000000000
#01212:00000013
#05818:0012
#05816:00120012
#05919:12121200
#05915:0012001200000000
#05918:0000000000000013
#03018:00130000
#0301b:2300000000130000
#03012:2300000000000023
#03015:0000002300000000
#01512:0000000000130000
#01518:00131300
#01515:0000001300001300
#01515:00000013
#0151b:00000013
#0111b:00000013
#01112:00000013
#01115:0000001300130000
#01118:00131300
#01715:0013000000130000
#0171b:00130013
#01718:0013
#01712:0000001300000013
#0181b:0000001300000013
#01812:0013
#01818:0013000000130000
#01815:00130013
#01912:0000001300001300
#0191b:0013
#01915:0013000000130000
#01918:00130013
#00912:0013
#00918:0000130000130000
#00915:0000001300001300
#02012:0000001300000000
#02018:0013130000130000
#02015:00000013000000001300000000000000
#0201b:00000013
#02010:41
#0211b:0000001300000000
#02115:0000000000130000
#02118:00131300
#02112:00000013
#02212:0000001300000023
#02218:0000000000130023
#02215:00131300
#0221b:00000013
#02915:00130000
#02912:1313
#0291b:00130000
#02918:1313
#0321b:00130000
#03212:23000013
#03215:0000001300000000
#03218:0000000013000013
#03210:41
#03512:00130000
#03515:0000001300000013
#03518:0013
#03519:33
#03312:0000000000130000
#03318:00000013
#03315:0000000000000013
#0331b:0013000000000000
#0341b:1300000000000013
#03412:1313
#03415:00130000
#03418:0013001300000000
#03414:0000000000330000
#03118:0023002300000013
#03112:0023
#0311b:0023
#03115:00230000
#03612:00130000
#0361b:13000013
#03618:0000001300000000
#03615:0000000013000013
#0391b:0000130000000023
#03918:0000001300000000
#03915:0013
#0371b:0000000000130000
#03715:00000013
#03718:0000000000000013
#03712:0013000000000000
#03812:1300000000000013
#0381b:1313
#03818:00130000
#03815:0013001300000000
#04018:0000130000130000
#04015:0000001300001300
#04012:0013000000000013
#0401b:0013
#04212:0013
#04215:00130013
#0421b:0000001300000000
#04218:0000000000130000
#04518:00130000
#04515:0013001300000000
#04512:0013
#0451b:0013
#04718:0000130000130000
#0471b:0013
#04715:0000001300001300
#04415:0000130000130000
#04418:0000001300001300
#0441b:0013000000000013
#04412:0013
#04410:41
#0461b:0013
#04618:00130013
#04612:0000001300000000
#04615:0000000000130000
#05718:0000000000000000000000000000000026000000000000001636360000000000
#05717:0000000000000000000000000000000000000000000000000000003600000000
#05716:0000000000000000000000000000000000000000000000000000000036360000
#05715:0000000000000000000000000000000000000000000000000000000000003636
#0601b:00130013
#06018:0000001300000000
#06015:0013
#06012:2300000000000013
#0601f:21
#06315:0000130000000013
#06318:0000001300000000
#0631b:0013
#0611b:0000000000130000
#06118:00000013
#06115:0000000000000013
#06116:0013000000000000
#06110:41
#06218:1313
#06212:1300001300000000
#06215:0000130000000013
#0621b:0013000000000000
#06412:00130013
#06415:0000001300000000
#06418:0013
#0641b:1300000000000013
#06718:00130000
#06715:0000001300000000
#06712:0013
#0671b:0000000000000013
#06512:0000000000130000
#06515:00000013
#06518:0000000000000013
#06517:0013000000000000
#06615:1313
#0661b:1300001300000000
#06618:0000130000000013
#06612:0013000000000000
#06818:00130000
#0681b:0000000000001313
#06815:2300001300000000
#06812:0013
#06816:0000000000001313
#07118:00130000
#07115:0000001300000000
#0711b:0013
#07112:0000000013000013
#07012:1300130000000013
#0701b:1313
#07018:0013000000000000
#07015:0000001300000000
#0691b:0000000000130000
#06918:00000013
#06915:0000000000000013
#06917:0013000000000000
#06912:0013000000000000
#07215:00130000
#07212:0000000000001313
#07218:2300001300000000
#0721b:0013
#07217:0000000000001313
#0741b:1300130000000013
#07412:1313
#07415:0013000000000000
#07418:0000001300000000
#07312:0000000000130000
#07315:00000013
#07318:0000000000000013
#07316:0013000000000000
#0731b:0013000000000000
#07515:00130000
#07518:0000002200000023
#07516:0022
#07718:0013
#07712:0013
#0771b:0000130000000013
#07715:0000001300000000
#07915:0000130000000023
#0791b:0013
#07912:0013
#07918:0000001300000000
#07612:0013000000000000
#07615:0000130000000013
#07618:0000001300000000
#0761b:0013
#07610:41
#07815:0000000013000013
#0781b:00000013
#07812:00130000
#07818:0000001300130000
#08115:0013
#0811b:0013
#08112:0000130000000013
#08118:0000001300000000
#08318:0000130000130000
#08312:0013
#08315:0000001300000013
#0831b:00000013
#0801b:0013000000000000
#08018:0000130000000013
#08015:0000001300000000
#08012:0013
#08218:0000000013000013
#08212:00000013
#0821b:00130000
#08215:0000001300130000
#08415:0000130000130000
#0841b:0013
#08418:0000001300000013
#08412:00000013
#08618:0013000023002300
#08612:0000001300000000
#08615:0000130000230000
#0861b:0000000000000023
#08715:0013000023002300
#0871b:0000001300000000
#08718:0000130000230000
#08712:0000000000000023
#02319:00000013
#02314:00000013
#0231b:0023
#02318:0000002300000000
#02315:00230000
#02312:0023000000000000
#02552:0013005300000000
#02558:0013005300000000
#0255b:0000000000130000
#02555:0000000000130000
#0165b:0000000000000013
#0885b:00000013
#08852:00000013
#02455:0000000000000063
#0245b:0000000000000063
#02755:0063
#08552:0000000000000013
#05352:00000013
#0535b:00000013
#01752:0000000000000013
#0185b:0000000000000013
#02855:00530053
#02852:0063
#0285b:00530053
#02858:0063
#02955:00530000
#02952:6363
#0295b:00530000
#02958:6363
#03452:0053
#0345b:0000000000000063
#03258:0000000013000053
#03252:13
#0385b:0063
#03852:0000000000000053
#03655:0000000013000063
#0365b:13
#04052:0000000000000013
#0395b:0000000000000013
#0445b:0000000000000013
#04352:0000000000000013
#04952:0053
#04955:00000016
#0555b:00000013
#05558:0053
#05452:0000000000000053
#05758:00000066
#06258:0053
#06255:0000000000000063
#06055:0013
#06052:1300000000000053
#06655:0063
#06658:0000000000000053
#06458:0013
#0645b:1300000000000063
#07052:0000000000000053
#0705b:0063
#06852:0013
#0685b:0000000000000063
#06855:13
#06856:0000000000000063
#0745b:0000000000000063
#07452:0053
#0725b:0013
#07252:0000000000000053
#07257:0000000000000053
#07258:13
#07558:0000000000000013
#0765b:0063
#07655:0000000000000063
#0775b:0000000000000063
#07855:0000000000000063
#08052:0053
#08058:0000000000000053
#08152:0000000000000053
#08258:0000000000000053
#07955:0000000000000013
#08355:0000000000000063
#08458:0000000000000013
#0865b:0000000000000013
#08752:0000000000000013
#06957:0053000000000000
#06952:0053000000000000
#07356:0063000000000000
#0735b:0063000000000000
#03752:0053000000000000
#0335b:0063000000000000
#06156:0063000000000000
#06557:0053000000000000
#000380:00001222
#004380:00001323
#008320:0000000000000013
#009350:0023000000000000
#0093b0:0000000000000013
#010380:0023000000000000
#010320:0000000000000013
#011350:0023000000000000
#012380:0000000000000013
#0133b0:0023000000000000
#0133b0:0000000000000013
#014380:0023000000000000
#014320:0000000000000013
#015350:0023000000000000
#020350:0000000000000013
#021320:0023000000000000
#021380:0000000000000013
#0223b0:0023000000000000
#024350:0000000000000013
#025320:0023000000000000
#0243b1:0000000000000013
#025381:0023000000000000
#025381:0000001300000000
#0253b1:0000000000230000
#025320:0000001300000000
#025350:0000000000230000
#027350:0013
#027320:00000023
#028350:00130033
#028320:0033
#029320:3333
#029350:00330023
#0283b1:00130033
#028381:0033
#029381:3333
#0293b1:00330023
#032381:0000000000000013
#0333b1:0033000000000000
#033371:0023
#034321:0013
#034341:0000000000330000
#034351:00000023
#0343b1:0000000000000013
#035391:33
#035381:0023000000000000
#036351:0000000000000013
#037321:0033000000000000
#037361:0023
#0383b1:0013
#038381:00000023
#038321:0000000000000013
#039351:0023000000000000
#041381:0000000000000013
#0423b1:0023000000000000
#0423b1:0000000000000013
#043381:0023000000000000
#045351:0000000000000013
#046321:0023000000000000
#046321:0000000000000013
#047351:0023000000000000
#0473b1:0000000000000013
#048381:0023000000000000
#049321:0013
#049341:0000000000000000000000000000000000330000000000000000000000000000
#049351:00000000000000000033000026000000
#049361:0000000000000000000000000000000000000033343434340000000000000000
#0503b1:13
#050381:00230000
#050381:0013
#0503b1:00000023
#050351:0000000000000013
#051351:0023000000000000
#052381:0000000000000013
#053381:0023000000000000
#054321:0000000000000013
#055351:0023000000000000
#055381:0013
#0553b1:00000023
#056351:13333333333323000000000000000000
#056381:00000000000000001434343434342400
#057331:15353535353525000000000000000000
#057381:0000000000000000000000000000000016003600360036003636360000000000
#057371:0000000000000000000000000000000000000000000000000000003600000000
#057361:0000000000000000000000000000000000000000000000000000000036360000
#057351:0000000000000000000000000000000000000000000000000000000000003636
#058351:26
#060321:0000000000000013
#061361:0033000000000000
#061321:0023
#062381:0013
#0623b1:00000023
#062351:0000000000000013
#063321:0023000000000000
#0643b1:0000000000000013
#065371:0033000000000000
#0653b1:0023
#066351:0013
#066321:00000023
#066381:0000000000000013
#0673b1:0023000000000000
#0683b1:0000000000000013
#069371:0033000000000000
#0693b1:0023
#068360:0000000000000013
#069320:0033000000000000
#069360:0023
#0703b0:0013
#070380:00000023
#070320:0000000000000013
#071350:0023000000000000
#072320:0000000000000013
#073360:0033000000000000
#073320:0023
#072371:0000000000000013
#0733b1:0033000000000000
#073371:0023
#074321:0013
#074351:00000023
#0743b1:0000000000000013
#075381:0023000000000000
#0763b1:0013
#076381:00000023
#076351:0000000000000013
#077321:0023000000000000
#0773b1:0000000000000013
#078381:0023000000000000
#078351:0000000000000013
#079321:0023000000000000
#080321:0013
#080351:00000023
#080381:0000000000000013
#0813b1:0023000000000000
#081321:0000000000000013
#082351:0023000000000000
#082381:0000000000000013
#0833b1:0023000000000000
#083351:0000000000000013
#084321:0023000000000000
