This file was generated by Ched 2.6.4.0.
#TITLE ""
#ARTIST ""
#DESIGNER ""
#DIFFICULTY 0
#PLAYLEVEL
#SONGID ""
#WAVE ""
#WAVEOFFSET 0
#JACKET ""
#REQUEST "ticks_per_beat 480"
#00002: 4
#BPM01: 174
#00008: 01
#TIL00: ""
#HISPEED 00
#MEASUREHS 00
#00312:12323213
#00317:00000000000000000000000000130000
#00314:0000000000000013
#00318:0000121200000000
#0031b:0000000000130000
#00319:00000000000000000000000000000013
#0031a:12
#00716:00001400140000140000000014141414
#00712:13
#0071b:13
#00218:0000121200000000
#0021c:00000012
#0021a:12
#0261b:0000130000130013
#02616:0013000000130013
#02615:0000001300000000
#02612:00131313
#02617:13001313
#02717:00131300
#0271b:0013001300130000
#02712:13131313
#02716:0000001300000000
#04017:0013130013001313
#0401b:1300001300130000
#04012:13130000
#04016:0000001300000000
#04217:0000130013000013
#0421b:0013001300001300
#04219:0000000000130000
#04212:0000130013000013
#04216:0000001300001300
#0491b:0013001300000000
#04912:0000000000000000130000000000000023001333333333330000000000000000
#04917:0013
#04916:0013001300000000
#03112:0000000000000013
#03116:0000000000000014
#03119:0022222200000000
#03115:0022222226000000
#03216:2400131300000000
#0321b:00001313
#03217:0000000000130013
#03212:0013000000000013
#03210:41
#0351b:13131300
#03515:00130013000013000000130000000000
#03512:13131300
#03518:00001300001300130000000000000000
#0041b:1300131300000000
#00412:00001313
#04116:00130000
#04112:0013001300000013
#0411b:13131313
#04117:0000001300130013
#05012:0000130000000013
#0501b:0000001300001300
#05017:13
#05016:0000001313000013
#0501f:11
#05114:00130014
#05112:0000000013000014
#05118:0014
#0511a:0000001400000000
#05117:13
#0511b:13000013
#05116:0000000000140000
#05119:00130000
#03412:1314
#03416:0014001400000000
#03418:00000000000000000000000000000013
#0341b:00130000
#03415:0000000000000013
#0341a:00000014
#0081b:0013130000000000
#00812:00001313
#00816:2400130000130000
#00819:0000001300000000
#00814:0000001300000000
#00810:41
#00917:00131313
#00916:0000001300000000
#0091b:0013001300130000
#00912:00130000
#00919:13
#01117:00130000
#0111b:0013001300000000
#01112:00131313
#01119:13
#01116:0000001300130000
#01414:0000000000130000
#01416:0000001313000013
#01412:13130013
#0141b:0000000000000013
#0241b:0000000013000013
#02417:00130000
#02412:00130013
#02416:0000000000000013
#02418:26
#0251b:0000000000130013
#02512:0000000000000013
#02517:1313000013000000
#02516:0000131300000000
#0531a:00001414
#05312:00000000130000001400000000140000
#05316:0013000000240024
#05317:13
#0531b:0000001300000000
#00612:00000013
#0061b:00000013
#00616:1300131300000000
#01012:00131313
#0101b:0000001300000000
#01016:0013001300130000
#01017:00130000
#01014:13
#0131b:00000000000000000000000000000013000000000000000000000000000000000000000000000000000000000000000000000000000000001300000000000000
#01312:1300001313000000
#01318:00000000000000000000000000000000160000000000001300000000000000000000000000000013160000000000000000000000000000000000000000000000
#01315:00000000000000000000000000000000000000000000000016000000000000131600000000000000000000000000000000000000000000000000000000000000
#01314:0000130000130000
#01316:0000000000001313
#02816:14130000
#02812:00130013
#0281b:0013
#02817:0013
#05915:1212121200000000
#0591c:0012
#05912:0000000012000014
#05919:1212121200000000
#05917:0000000000000013
#0581c:00000012
#05819:0012
#05815:00120000
#05812:12
#03312:0013
#0331b:1313
#03316:1300001300140014
#03317:00130000
#03319:0013000000000000
#07518:0012000000000000
#07516:00000000120000000000000000130013
#07517:0000000000001313
#07519:0000002222000000
#07515:0000002222000000
#08816:00000000140000000024002400000000
#0881b:0000001300000000
#08812:0013000024002400
#0881a:0000000000242400
#08915:0000000000000012
#08919:0000000000000012
#09013:0012000000000000
#09015:0012
#09017:0012001200000000
#09019:0012
#0901b:00120000
#0431b:00000000000000000000000000130000
#04312:0000000013000023
#04315:00000013
#04317:0000000000000013
#01215:0000000000130000
#01216:0013001300000013
#01212:13131313
#0121b:13000013000013000000130000001300
#01217:00131300
#00018:1200121200000000
#00014:00001212
#00116:1200121200000000
#0011a:00000012
#01519:0000000000130000
#0151b:0000001313000013
#01517:13130013
#01516:00000000000000000000000000000013
#01512:00000000000000000000000000130000
#01612:0013130000000000
#0161b:00001313
#01617:0000130000130000
#01614:0000001300000000
#01619:0000001300000000
#01616:13
#01716:00131313
#01717:0000001300000000
#01712:0013001300130000
#0171b:00130000
#01714:13
#01916:00131300
#01912:0013001300000000
#0191b:00131313
#01914:13
#01917:0000001300130000
#01915:00000000000000000000000000130000
#02219:0000000000130000
#02217:0000001313000000
#0221b:1300130000001323
#02212:0000000000000023
#0181b:00131313
#01812:0000001300000000
#01817:0013001300130000
#01816:00130000
#01819:13
#02112:00000000000000000000000000000013160000000000000000000000000000000000000000000000160000000000000000000000000000001300000000000000
#0211b:1300001313000000
#02115:00000000000000000000000000000000000000000000001316000000000000001600000000000013000000000000000000000000000000000000000000000000
#02118:00000000000000000000000000000000000000000000000000000000000000130000000000000000000000000000000000000000000000000000000000000000
#02119:0000130000130000
#02117:0000000000001313
#02018:0000000000130000
#02017:0013001300000013
#0201b:00131313
#02015:13
#02016:00131300
#02012:00000013000013000000130000001300
#02010:41
#00517:1300131300000000
#00512:00000013
#0051b:00000013
#02316:0000002300130000
#02312:0023000000001300
#02318:00000000000000002300000000130000
#02314:00230000
#03017:0000122200000000
#0301a:00120000
#0301b:2300000000120000
#03016:0000000000120000
#03018:0000000000000022
#03013:0000000000000022
#03014:0000002200000000
#03012:23
#03617:0000131300000000
#03612:00001313
#03616:0000000000130013
#0361b:0013000000000013
#03912:13131313
#03918:0000130000001300000000001300000000000033000000000000000000001300
#03915:0000000013000000000013000000130000000000000033330000130013000000
#0391b:13131300
#03919:00000000000000000033000000000000
#0391a:0000000000000000000000000000000000330000000000000000000000000000
#03917:0000000000330000
#03916:0000000000000000000000000000000000000000003300000000000000000000
#0381b:13
#03816:0014001400000000
#03815:00000000000000000000000000000013
#03812:00130014
#03818:0000000000000013
#0381a:0014
#0371b:0013
#03712:1313
#03717:1300001300000000
#03716:0000130000140014
#03714:0013000000000000
#04416:0013130013001313
#04412:0000001300130000
#0441b:00130000
#04417:0000001300000000
#04410:41
#04517:00130000
#0451b:0013001300000013
#04512:13131313
#04516:0000001300130013
#0461b:00130000
#04612:00001300000013000000001200001300
#04617:0000001300140013
#04616:00130000
#0461a:0014
#04614:00000014
#04615:00000000000000000012000000000000
#04712:0000130014000014
#0471b:0013001300000000
#04716:0000001300000014
#04717:00130000
#04718:00000014
#04715:0000000000140000
#04719:00000000000000000012000000000000
#0471c:00000000000000000000001200000000
#04816:0014141400000000
#04818:0016
#04812:00000000140000000000001316001400
#04815:00000000000000000013160000000000
#0481a:0000001400000014
#0541a:14
#05412:1400001300000013
#05418:00000013000000000000000000000000
#05415:0013130000000000
#0541b:0013
#05417:0000001300130000
#05416:00000013
#05212:1313
#05216:0013000000130000
#05217:00130013
#0521b:0000001300000013
#05516:1300130000130000
#05517:0013001313000000
#0551b:00131300
#05512:0000001300130000
#0601b:0000131300000000
#06016:00001313
#06012:0000000000130013
#06017:0013000000000013
#0601a:24
#0601f:21
#0631b:1300131313000000
#06312:1313130013000000
#06316:00140014001400140000000000000000
#06318:0000000000130000
#06212:0013000014000000
#06216:14000000140000000000000014000014
#0621b:0000001300000013
#06112:0000130013000014
#06116:1300000000140000
#06114:0013000000000000
#0611b:1300001313000000
#06110:41
#06412:0000131300000000
#06417:00001313
#0641b:0000000000130013
#06416:0013000000000013
#0661b:0013000000000000
#06616:14000000140000000000000014000014
#0661a:0014
#06612:0000001300000013
#0651b:00131300
#06517:13
#06519:0013000000000000
#06512:1300001313000000
#0651a:0000000000000014
#06516:0000000000140000
#06712:1300131313001300
#06715:0000000000000000000000000000000000000000000033330000130013000000
#06718:0000000000000000000000000000000000000033000000000000000000001300
#0671b:1313130013000000
#06716:0000140000001400000014000000140000000000003300000000000000000000
#06719:00000000000000000033000000000000
#0671a:0000000000000000000000000000000000330000000000000000000000000000
#06717:0000000000330000
#06817:0000001300000013
#0681b:00000013
#06816:0013
#06812:0013000000000013
#06815:26
#0711b:13131300
#07116:00141414001414140000000000000000
#07112:13131300
#07115:0000000000130000
#06912:0000000013000014
#0691b:1300001313000000
#06916:1300001300140000
#06914:00130000
#07016:00001400000014000000000014001414
#07012:00131400
#0701b:13
#08512:0013001300000000
#0851b:0000130013000013
#08517:0013001300121200
#08516:0000000013000024
#0781b:0000130013000013
#07816:0000130013000013
#07812:0013001300001300
#07814:0000000000130000
#07817:1300001300001300
#0791b:0013
#07916:0000000000001313
#07917:00000000000000000000000000130013
#07612:13130013
#07617:0013130013000000
#0761b:1300001300000013
#07616:0000001300000013
#07610:41
#0771b:0013001300000013
#07712:13131300
#07717:00130013
#07716:0000001300000013
#0801b:13130013
#08016:0013130013000000
#08012:1300001300000013
#08017:0000001300000013
#08112:0013001300000013
#0811b:13131300
#08116:00130013
#08117:0000001300000013
#08416:0014141400000014
#08418:14000000000000001613000000000000
#08412:0000001400001600
#08415:00000000000000000000161300000000
#0841a:00140000
#0871b:0013000000000013
#08712:0000001300002400
#08716:0000140000240024
#08718:00000000000000000014000000000000
#08714:00000000000000000000001400000000
#0871a:0024
#08612:0013000024000013
#0861b:0000001300000000
#08616:0000140000240024
#08614:00000000000000000014000000000000
#08618:00000000000000000000001400000000
#0861a:00000024
#07216:0000001300000013
#07212:00000013
#07217:0013
#0721b:0013000000000013
#07215:26
#0731b:0013
#07312:1300001313000000
#07317:1300001300000000
#0731a:0000000000000014
#07316:0000000000140000
#07319:00130000
#07416:0014001412000000
#07412:130000000000001c
#0741b:00130000
#07418:00000000000000000012001300140000
#07415:0000000000130000
#07414:00000014
#0821a:0014
#08212:00000000130000000000001214000000
#08216:13000000000013000012140000001300
#08217:00130000
#0821b:0013001300000013
#08312:0013001314000014
#0831a:0000000000001414
#08316:0000130000140000
#08318:00000000000000000012000000000000
#0831c:00000000000000000000001200000000
#0831b:00130000
#08317:1300001300000000
#05617:00120000000000001213000000000000
#05615:0012001200000000
#05619:00000012000000120000001300000013
#05613:00120000
#0561b:00000000001200000000000000130000
#0561a:12
#05614:1200000000130013
#05612:00000013
#05716:14000000000000140000000000360000
#05713:0014001400000000
#05719:00140000001400000000000000000000
#05712:0000140000260000
#0571a:00000014000000000000000000000000
#05718:00000000000000000026000026000000
#05715:0000000000000000000000000000000026000000000026000000003600000000
#05714:0000000000000000000000000000000000000000000000000000000036353434
#05717:0000000000000000000000000000000000000000000000000036000000000000
#0291b:13000013
#02912:00000000130000000000000000130000
#02916:00130000
#02917:0013
#02918:0000000000000013
#02915:00000000000000000000000000000013
#0325b:0013
#03256:14
#03257:0000000000000053
#03252:0000000000000053
#0245b:0000000063000013
#02452:00530000
#02456:0000000000000063
#02552:0013000000130000
#0255b:0000001300130063
#02557:0053000000000000
#02556:0000006300000000
#0135b:00000000000000000000000000000063000000000000000000000000000000000000000000000000000000000000000000000000000000001300000000000000
#01358:00000000000000000000000000000000660000000000006300000000000000000000000000000053560000000000000000000000000000000000000000000000
#01355:00000000000000000000000000000000000000000000000066000000000000535600000000000000000000000000000000000000000000000000000000000000
#01352:23
#01356:0000000000000063
#04352:0000000000000013
#04357:0000000000000053
#04958:00000046
#04952:00000000000000000023000000000000
#00857:0000000000000043
#00856:44
#00952:0000000000000043
#01057:0000000000000043
#01256:0000000000000063
#01257:0053
#0125b:0000000000230013
#01452:23
#01456:0000000000000013
#0145b:0000000000000063
#01557:23
#02152:00000000000000000000000000000053560000000000000000000000000000000000000000000000660000000000000000000000000000001300000000000000
#0215b:23
#02155:00000000000000000000000000000000000000000000005356000000000000006600000000000063000000000000000000000000000000000000000000000000
#02158:00000000000000000000000000000000000000000000000000000000000000630000000000000000000000000000000000000000000000000000000000000000
#02157:0000000000000053
#02057:0000000000000053
#02056:0063
#02052:0000000000230013
#0225b:2300000000000063
#02252:0000000000000013
#01656:0000000000000033
#0175b:0000000000000033
#01856:0000000000000033
#00352:22
#02657:23
#02656:0000000000000063
#02757:0053
#0275b:0000000000230000
#02752:23
#05758:00000066
#0335b:23
#03352:0033000000000000
#03356:23
#03357:00230000
#03359:0063000000000000
#03652:0013
#03656:1400000000000063
#0365b:0000000000000063
#03752:23
#03757:23
#03756:00230000
#03754:0053000000000000
#0375b:0043000000000000
#0395b:0063
#04052:0000000000000013
#04057:0000000000000053
#0415b:23
#04157:0000000000000013
#04152:0000000000000023
#04257:0000000000000053
#04552:23
#04556:0000000000000013
#0455b:0000000000000023
#04456:0000000000000063
#0445b:0000000000000013
#04752:0000000000000014
#04756:0000000000000054
#05356:0063000000140014
#05352:00230000
#05357:23
#05052:0000000000000053
#05056:0000000000000053
#05157:23
#0515b:23
#0525b:0000000000000063
#05452:0000000000000053
#05556:2300000000230000
#05552:0000001300230000
#05557:00006343
#0555b:00136343
#06056:0013
#06052:0000000000000053
#0605a:14
#06057:0000000000000053
#06156:23
#06152:00230000
#06154:0063000000000000
#06158:0033000000000000
#0615b:23
#06457:0013
#0645b:0000000000000063
#06456:0000000000000063
#06452:14
#06557:23
#0655b:00230000
#06559:0053000000000000
#06552:23
#06555:0043000000000000
#0675b:0063
#06856:0013
#06852:0000000000000053
#06855:16
#06857:0000000000000053
#06956:23
#06952:0033000000000000
#0695b:23
#06957:0033000000000000
#07856:0000000000000063
#07857:23
#0785b:0000000000000013
#04657:0000000000000013
#04652:0000000000000023
#0765b:0000000000000013
#07656:0000000000000063
#07657:0043
#07752:23
#07756:0000000000000013
#0775b:0000000000000063
#08052:0000000000000013
#08057:0000000000000053
#08056:0033
#0815b:23
#08157:0000000000000013
#08152:0000000000000053
#08456:0000000000000014
#08458:24
#0875b:0000000000000053
#08756:0000000000000034
#08852:00000034
#0885a:00000044
#08656:0000000000000044
#08652:0000000000000063
#08556:0000000000000034
#0855b:0000000000000053
#07257:0013
#0725b:0000000000000063
#07256:0000000000000063
#07255:16
#07357:23
#07352:23
#0735b:0043000000000000
#07356:0043000000000000
#07452:000000000000001c
#08256:2300000000000013
#0825b:0000000000000063
#08357:23
#0835a:0000000000000014
#08352:0000000000000054
#0295b:63
#02952:00530000
#02956:00530000
#02957:0063
#02852:00000053
#0285b:0063
#02857:0063
#02856:00530000
#000340:12220000
#000380:00001222
#0013a0:12220000
#002320:12323232
#003320:3200320032280000
#004360:13230000
#0043b0:00001323
#005320:13230000
#0063b0:13230000
#007320:00000000000014240000000000000000
#0073a0:0000000000142400
#008320:1323000000000000
#008370:0000000013003323
#0083b0:0000000000330000
#008321:0000000000000013
#009361:0023000000000000
#009321:0000000013003323
#009361:0000000000330000
#009370:0000000000000013
#0103b0:0023000000000000
#010370:0000000013003323
#0103b0:0000000000330000
#010321:0000000000000013
#011361:0023000000000000
#011371:00001323
#0113b1:0000000000330000
#012371:00001323
#0123b1:0000000000530000
#012361:0000000000000013
#013321:53
#013361:0023000000000000
#0133b0:000000000000000000000000000000000000000000000000000000000000000000000000000000000000000000000000000000000000000000000000000000000000000000000000000000000000000000000000000000000000000000000000000000000000000000000000000000000000000000000000135300000000000000000000000000000000000000000000000000000000000000000000000000000000000000000000000000000000000000000000000000000000000000000000000000000000000000000000000000000000000000000000000000000000000000530000000000000000000000000000000000000000000000000000000000000000000000000000000000000000000000000000000000000000000000000000000000000000000000000000000000000000000000000000000000000000000000000000000000000000000000000000000000000000000000000000000000000000000000000000000000000000000000000000000000000000000000000000000000000000000000000000000000000000000000000000000000000000000000000000000000000000000000000000000000000000000000000000000000000000000000000000000000000000000000000000000000000000000000000000000000000000000000000000000000000000000000000000000000000000000000000000000000000000000000000000000000000000000000000000000000000000000000000000000000000000000000000000000000000000000000000000000000000000000000000000000000000000000000000000000000000000000000000000000000530000000000000000000000000000000000000000000000000000000000000000000000000000000000000000000000000000000000000000000000000000000000000000000000000000000000000000000000000000000000000000000000000000000000000000230000000000000000000000000000000000000000000000000000000000000000000000000000000000000000000000000000000000000000000000000000000000000000000000000000000000000000000000000000000000000000000000000000000000000000000000000000000000000000000000000000000000000000000000000000000000000000000000000000000000000000000000000000000000000000000000000000000000000000000000000000000000000000000000000000000000000000000000000000000000000000000000000000000000000000000000000000000000000000000000
#013380:00000000000000000000000000000000365300000000005300000000000000000053000000000053360000000000000000000000000000000000000000000000
#013350:00000000000000000000000000000000000000000000000036530000000000533600000000000000000000000000000000000000000000000000000000000000
#013360:0000000000000013
#014320:53
#014360:0023000000000000
#0143b1:00000000000000001300000000000000000000000000000033000000000000530000000000000000000000000000000000000000000000000000000000000000
#014371:00000000000000000000000000000000530000000000000000000000000000000000000000000000355300000000000023000000000000000000000000000000
#014391:00000000000000000000000000000000000000000000000000000000000000003553000000000053000000000000000000000000000000000000000000000000
#0143b1:0000000000000013
#015371:53
#0153b1:0023000000000000
#015360:00000000000000001300000000000000000000000000000033000000000000530000000000000000000000000000000000000000000000000000000000000000
#015320:00000000000000000000000000000000530000000000000000000000000000000000000000000000355300000000000023000000000000000000000000000000
#015340:00000000000000000000000000000000000000000000000000000000000000003553000000000053000000000000000000000000000000000000000000000000
#0163b0:1323000000000000
#016360:0000000013003323
#016320:0000000000330000
#0163b1:0000000000000013
#017371:0023000000000000
#0173b1:0000000013003323
#017371:0000000000330000
#017360:0000000000000013
#018320:0023000000000000
#018360:0000000013003323
#018320:0000000000330000
#0183b1:0000000000000013
#019371:0023000000000000
#019321:0000000000132300
#019381:0000000000000013
#020381:23
#020361:00001323
#020321:0000000000530000
#020371:0000000000000013
#0213b1:53
#021371:0023000000000000
#021320:000000000000000000000000000000000000000000000000000000000000000000000000000000000000000000000000000000000000000000000000000000000000000000000000000000000000000000000000000000000000000000000000000000000000000000000000000000000000000000000000135300000000000000000000000000000000000000000000000000000000000000000000000000000000000000000000000000000000000000000000000000000000000000000000000000000000000000000000000000000000000000000000000000000000000000530000000000000000000000000000360000000000000000000000000000000000000000000000000000000000000000000000000000000000000000000000000000000000000000000000000000000000000000000000000000000000000000000000000000000000000000000000000000000000000000000000000000000000000000000000000000000000000000000000000000000000000000000000000000000000000000000000000000000000000000000000000000000000000000000000000000000000000000000000000000000000000000000000000000000000000000000000000000000000000000000000000000000000000000000000000000000000000000000000000000000000000000000000000000000000000000000000000000000000000000000000000000000000000000000000000000000000000000000000000000000000000000000000000000000000000000000000000000000000000000000000000000000000000000000000360000000000000000000000000000530000000000000000000000000000000000000000000000000000000000000000000000000000000000000000000000000000000000000000000000000000000000000000000000000000000000000000000000000000000000000000000000000000000000000000230000000000000000000000000000000000000000000000000000000000000000000000000000000000000000000000000000000000000000000000000000000000000000000000000000000000000000000000000000000000000000000000000000000000000000000000000000000000000000000000000000000000000000000000000000000000000000000000000000000000000000000000000000000000000000000000000000000000000000000000000000000000000000000000000000000000000000000000000000000000000000000000000000000000000000000000000000000000000000000000
#021350:00000000000000000000000000000000005300000000005336000000000000003653000000000053000000000000000000000000000000000000000000000000
#021380:00000000000000000000000000000000000000000000000000530000000000530000000000000000000000000000000000000000000000000000000000000000
#021370:0000000000000013
#0223b0:53
#022370:0023000000000000
#022321:00000000000000001300000000000000000000000000000033000000000000533500000000000000000000000000000000000000000000000000000000000000
#022361:00000000000000000000000000000000530000000000000000000000000000000000000000000000005300000000000023000000000000000000000000000000
#022341:00000000000000000000000000000000000000000000000000000000000000000053000000000053350000000000000000000000000000000000000000000000
#0223b1:0000000000000013
#023351:00000000000000533500000000000000000000000000000000000000000000000000000000000000000000000000000000000000000000000000000000000000
#023371:00000000000000000053000000000053350000000000000000000000000000000000000000000000000000000000000000000000000000000000000000000000
#023391:00000000000000000000000000000000005300000000005335000000000000000000000000000000000000000000000000000000000000000000000000000000
#0233b1:00000000000000000000000000000000000000000000000000530000000000002300000000000000000000000000000000000000000000000000000000000000
#0233b1:0000000000132300
#023351:0000000000000013
#024351:23
#024321:00130000
#024361:0000005323000000
#0243b0:0013
#024370:0000000000532300
#024360:0000000000000013
#025320:5323000000000000
#025371:0013000000000000
#0253b1:0000532300000000
#025360:0000001300000000
#025320:0000000053230000
#0253b0:0000000000000013
#026370:53
#0263b0:0023000000000000
#026360:0000000000000013
#027320:53
#027360:0023000000000000
#027370:00001323
#0273b0:0000000000530000
#028360:00130023
#0283b0:0033
#028371:0013
#028321:00000033
#029371:23
#0293b0:1323
#029360:00330000
#029321:00130023
#029371:0033
#0323b1:1300332300000000
#032371:0053000000000000
#032361:00001323
#032321:0000000000530000
#032321:0000000000000013
#033361:53
#033321:0023000000000000
#032370:0000000000000013
#0333b0:5300002300000000
#033390:0033000000000000
#033370:00530000
#033320:0000000000142400
#0333a1:0000000000001424
#034361:14
#0343c1:0022000000000000
#034361:00140000
#034321:0000002200000000
#0343a1:0000000014240000
#034360:0000000000142400
#035380:0000000000132300
#035351:00000000000000000000000013230000
#0353b0:00000000000000000000000000132300
#035321:00000000000000000000000000001323
#035360:00000000000000000000000000000014
#036360:24
#036321:1300332300000000
#036361:0053000000000000
#036371:00001323
#0363b1:0000000000530000
#0363b1:0000000000000013
#037371:53
#0373b1:0023000000000000
#036360:0000000000000013
#037320:5300002300000000
#037340:0033000000000000
#037360:00530000
#0373a0:0000000000142400
#037321:0000000000001424
#038361:14
#038321:0022000000000000
#038361:00140000
#0383c1:0000002200000000
#038321:0000000014240000
#038360:0000000000142400
#0393b0:0013
#0393a0:0000000000000000000000000000000000330000000000000000000000000000
#039390:00000000000000000033000000000000
#039380:0000000000000000000000000000000000000033000000000000000000000000
#039370:0000000000330000
#039360:0000000000000000000000000000000000000000003300000000000000000000
#039350:0000000000000000000000000000000000000000000033332300000000000000
#040320:0000000013003323
#040360:0000000000330000
#040371:0000000000000013
#0413b1:53
#041371:0023000000000000
#041361:00001323
#041321:0000000000330000
#041321:0000000000000013
#042361:0023000000000000
#042371:0000000000000013
#0433b1:0023000000000000
#043380:00001323000000000000000000000000
#0433b1:00000013230000000000000000000000
#043350:00000000132300000000000000000000
#043381:00000000001323000000000000000000
#043320:00000000000013230000000000000000
#043351:00000000000000132300000000000000
#043381:0000000000132300
#043371:0000000000000013
#0443b1:0023000000000000
#0443b1:0000000013003323
#044371:0000000000330000
#044360:0000000000000013
#045320:53
#045360:0023000000000000
#045370:00001323
#0453b0:0000000000330000
#0453b0:0000000000000013
#046370:0023000000000000
#046320:0000000000000013
#047360:0023000000000000
#047360:0000000000000014
#0483a0:0024000000000000
#049320:0000000000000000000000000000000013333333333333330000000000000000
#049380:00000026
#0503b0:13
#050360:00230000
#050320:0013
#050370:00000023
#050320:0000000000000013
#051370:53
#051320:0023000000000000
#050361:0000000000000013
#0513b1:53
#051361:0023000000000000
#052371:13
#0523b1:0023000000000000
#052321:00130000
#052361:0000002300000000
#052371:0013
#0523b1:0000000000230000
#052321:00000013
#052361:0000000000000023
#0523b0:0000000000000013
#053370:53
#0533b0:0023000000000000
#053361:0013002300000000
#053321:00530000
#053321:0000000000142400
#054361:0013
#054321:0000000000230000
#0543b1:00000013
#054371:0000000000000023
#054320:0000000000000013
#055360:53
#055320:0023000000000000
#055370:00001323
#055320:0000000000530000
#0553b1:00001323
#055361:0000000000530000
#057381:00000016
#057371:0000000000000000000000000000000000000000000000000036000000000000
#057361:00000000000000000000000000360000
#057351:0000000000000000000000000000000000000000000000000000003600000000
#057341:0000000000000000000000000000000000000000000000000000000036353434
#058341:24
#060361:1300332300000000
#060321:0053000000000000
#0603b1:00001323
#060371:0000000000530000
#060321:0000000000000013
#061361:5300002300000000
#061341:0033000000000000
#061321:00530000
#060370:0000000000000013
#0613b0:53
#061380:0023000000000000
#061321:0000000000140000
#061361:00000024
#0613a0:00000014
#061360:0000000000000024
#0623c0:12
#062360:0024000000000000
#062320:00120000
#062360:0000002400000000
#062360:0014
#0623a0:0000000000240000
#062361:0000000000140000
#062321:00000024
#063321:0000000000132300
#0633b0:00000000000000000000000013230000
#063351:00000000000000000000000000132300
#063380:00000000000000000000000000001323
#063321:00000000000000000000000000000014
#064321:24
#064370:1300332300000000
#0643b0:0053000000000000
#064320:00001323
#064360:0000000000530000
#0643b0:0000000000000013
#065370:5300002300000000
#065390:0033000000000000
#0653b0:00530000
#064361:0000000000000013
#065321:53
#065351:0023000000000000
#0653a0:0000000000140000
#065360:00000024
#065321:00000014
#065361:0000000000000024
#066321:12
#066361:0024000000000000
#0663c1:00120000
#066361:0000002400000000
#066361:0014
#066321:0000000000240000
#066360:0000000000140000
#0663a0:00000024
#0673b0:0013
#0673a0:0000000000000000000000000000000000330000000000000000000000000000
#067390:00000000000000000033000000000000
#067380:0000000000000000000000000000000000000033000000000000000000000000
#067370:0000000000330000
#067360:0000000000000000000000000000000000000000003300000000000000000000
#067350:0000000000000000000000000000000000000000000033332300000000000000
#0683b0:13230000
#068370:0053000000000000
#068321:0000132300000000
#0683b1:0013
#068371:0000000000230000
#068320:0000000000130000
#068360:00000023
#068320:0000000000000013
#069360:53
#069320:0023000000000000
#068371:0000000000000013
#0693b1:53
#069371:0023000000000000
#069321:0000000000140000
#069361:00000000000000000000005424000000
#0693a0:00000014
#069360:00000000000000000000000000542400
#070360:14
#070320:0022000000000000
#070360:00140000
#0703c0:0000002200000000
#070360:0014
#0703a0:00000000000000000054240000000000
#070361:0000000000140000
#070321:00000000000000000000005424000000
#071381:0000000000132300
#071350:00000000000000000000000013230000
#0713b1:00000000000000000000000000132300
#071320:00000000000000000000000000001323
#071351:00000000000000000000000000000016
#072351:26
#072320:13230000
#072360:0053000000000000
#0723b1:0000132300000000
#072321:0013
#072361:0000000000230000
#0723b0:0000000000130000
#072370:00000023
#0723b0:0000000000000013
#073370:53
#0733b0:0023000000000000
#072361:0000000000000013
#073321:53
#073361:0023000000000000
#0733a1:0000000000140000
#073361:00000000000000000000005424000000
#073320:00000014
#073360:00000000000000000000000000542400
#074360:14
#0743c0:0022000000000000
#074360:00140000
#074320:0000002200000000
#076320:0013
#076360:0000000000230000
#0763b1:0000000000130000
#076371:00000023
#076361:0000000000000013
#077321:53
#077361:0023000000000000
#077371:0013
#0773b1:0000000000230000
#077360:0000000000130000
#077320:00000023
#0773b0:0000000000000013
#078370:53
#0783b0:0023000000000000
#078360:0000000000000013
#079320:0023000000000000
#079351:00001323000000000000000000000000
#079320:00000013230000000000000000000000
#079381:00000000132300000000000000000000
#079350:00000000001323000000000000000000
#0793b1:00000000000013230000000000000000
#079380:00000000000000132300000000000000
#0793b0:0000000000132300
#0803b0:0013
#080370:0000000000230000
#080321:0000000000130000
#080361:00000023
#080371:0000000000000013
#0813b1:53
#081371:0023000000000000
#081361:0013
#081321:0000000000230000
#081370:0000000000130000
#0813b0:00000023
#081320:0000000000000013
#082360:53
#082320:0023000000000000
#0823b0:0000000000000013
#083370:53
#0833b0:0023000000000000
#083320:0000000000000014
#084380:54
#084320:0024000000000000
#0853b0:0000000000000013
#086360:0023000000000000
#086320:0000000000000013
#087370:0023000000000000
#0873b0:0000000000000013
#088360:0023000000000000
