This file was generated by Ched 2.6.4.0.
#TITLE ""
#ARTIST ""
#DESIGNER ""
#DIFFICULTY 0
#PLAYLEVEL
#SONGID ""
#WAVE ""
#WAVEOFFSET 0
#JACKET ""
#REQUEST "ticks_per_beat 480"
#00002: 4
#BPM01: 174
#00008: 01
#TIL00: ""
#HISPEED 00
#MEASUREHS 00
#01014:0014
#0101a:14
#01812:1414
#01918:14
#01912:0014
#00912:0014
#00918:14
#0161a:1414
#02418:14
#02414:0014
#0251a:14
#02818:14
#02814:0014
#05112:14
#0511a:0014
#05116:00140000
#0531a:14
#05312:0014
#05316:00140000
#06012:00160000
#06018:2616
#0601f:21
#06812:00160000
#06818:26001616
#06912:16001616
#06918:00160000
#07218:00160000
#07212:26001616
#07318:26001616
#07312:00160000
#0321a:2414
#03214:00140000
#03210:41
#07018:0014
#0701a:14
#07014:00000014
#07012:00140000
#07118:14
#07112:00140000
#0711a:0014
#0051a:14
#00814:0014
#0081a:14
#00810:41
#01118:14
#01112:0014
#01318:0014
#01514:0014
#01714:14
#0171a:0014
#0211a:0014
#02312:0014
#02614:14
#02618:0014
#02712:14
#0291a:14
#02912:0014
#03312:1414
#03318:00140000
#0341a:14
#03512:14
#03612:1414
#03618:00140000
#0371a:1414
#03714:00140000
#0401a:1414
#04014:00140014
#04118:1414
#04112:00140000
#04318:14
#04214:14
#04412:1414
#04418:00140014
#04410:41
#04514:1414
#0451a:00140000
#0481a:14
#04812:00140000
#04818:0014
#05712:1414
#05714:00140000
#06112:1616
#06118:00160000
#06110:41
#0621a:14
#06214:00140000
#06218:0014
#06212:00000014
#06318:14
#06314:00140000
#0631a:0014
#06418:00160000
#06412:2616
#06518:1616
#06512:00160000
#07612:1414
#07618:00140014
#07610:41
#07714:1414
#0771a:00140000
#0781a:14
#07818:00140000
#07912:14
#07914:00140000
#08212:14
#08214:0014
#0821a:00140000
#0831a:14
#08318:0014
#08312:00140000
#08612:0014
#0861a:00140000
#08614:24
#0871a:0014
#08712:00140000
#08718:24
#0881a:00140000
#08812:0014
#08818:00000014
#08814:24
#09019:0014
#09013:0014
#00414:0014
#0041a:14
#03812:14
#0391a:14
#04714:14
#04618:14
#05818:16161616
#05612:1414
#05614:00140014
#05418:0014
#0541a:14
#0551a:14
#06612:14
#06618:00140000
#06614:0014
#0661a:00000014
#06714:14
#06718:00140000
#06712:0014
#07418:0000160000140000
#07414:00001414
#07412:26
#0801a:1414
#08014:00140014
#08118:1414
#08112:00140000
#08412:14
#0841a:00140000
#08414:0014
#0501f:11
#07518:0024
#05912:0026
#08518:0024
#02010:41
#0255a:14
#02752:14
#0345a:64
#03552:54
#04254:64
#04358:54
#05752:5454
#05754:00540000
#0785a:64
#07858:00240000
#07952:54
#07954:00240000
#03852:54
#0395a:64
#04754:64
#04658:54
#04954:0014
#05652:5454
#05654:00540054
#05458:0064
#0545a:64
#0555a:64
#08858:00000014
#07252:16
#07358:16
#07452:16
#07558:0014
#05952:0016
#08558:0014
#000390:1434
#001390:24
#002330:1434
#003330:24
#006340:14
#006320:0034
#007340:34
#007320:0024
#0123a0:14
#012390:0034
#013380:24
#014320:14
#014330:0034
#015340:24
#020380:14
#020390:0034
#0213a0:24
#022340:14
#022330:0034
#023320:24
#030350:1600363600360036
#031350:0036363626000000
#0343a0:14
#034380:0024
#035320:14
#035340:0024
#038320:14
#038340:0024
#0393a0:14
#039380:0024
#042340:14
#042320:0024
#043380:14
#0433a0:0024
#046380:14
#0463a0:0024
#047340:14
#047320:0024
#048340:0000000000001434
#049340:0034343424000000
#0503a0:1424
#050380:00340000
#052320:1424
#052340:00340000
#0543a0:14
#054380:0034
#0553a0:34
#055380:0024
#056320:1434
#056340:00340034
#057320:3434
#057340:00340024
#059320:1636363626000000
#074380:0000000000000014
#075380:0034343424000000
#0783a0:1424
#078380:00340000
#079320:1424
#079340:00340000
#084380:0000000000001434
#085380:0034343424000000
