This file was generated by Ched 2.7.0.0.
#TITLE ""
#ARTIST ""
#DESIGNER ""
#DIFFICULTY 0
#PLAYLEVEL
#SONGID ""
#WAVE ""
#WAVEOFFSET 0
#JACKET ""
#REQUEST "ticks_per_beat 480"
#00002: 4
#BPM01: 130
#00008: 01
#TIL00: ""
#HISPEED 00
#MEASUREHS 00
#0051a:14
#0061a:14
#00712:14
#00812:14
#00810:00000000000000000000000000000041
#0131a:14
#01414:14
#01410:00000000000000000000000000000041
#01518:14
#01612:14
#00918:14
#01014:14
#0111a:14
#01212:14
#02618:2616
#02610:0000000000410000
#02718:16
#02812:1616
#02912:16
#03018:16
#03012:0016
#03118:16
#03212:16
#03218:0016
#03312:16
#03310:00000000000000000000000000000041
#03418:2616
#03612:1616
#03818:16
#03812:0016
#04012:16
#04018:0016
#0461a:14
#04714:14
#04818:14
#0171f:11
#0251f:00000000000000000000000000000021
#00210:00000000000000000000000000000041
#04110:00000000000000000000000000000041
#000390:00000000000000000000000000000014
#001390:00000000000000000000000000000024
#002330:00000000000000000000000000000014
#003330:00000000000000000000000000000024
#0173a0:14
#0183a0:24
#019340:14
#020340:24
#021380:14
#022380:24
#023320:14
#024320:24
#035380:1626
#037320:1626
#039380:1626
#041320:1626
#041390:00000000000000000000000000000014
#042390:00000000000000000000000000000024
#043330:00000000000000000000000000000014
#044330:00000000000000000000000000000024
#049320:1400000000240000
