This file was generated by Ched 2.7.0.0.
#TITLE ""
#ARTIST ""
#DESIGNER ""
#DIFFICULTY 0
#PLAYLEVEL
#SONGID ""
#WAVE ""
#WAVEOFFSET 0
#JACKET ""
#REQUEST "ticks_per_beat 480"
#00002: 4
#BPM01: 130
#00008: 01
#TIL00: ""
#HISPEED 00
#MEASUREHS 00
#00018:0000000000000013
#00918:0000130000130000
#0091b:0000001300000000
#00915:0013000000001300
#00912:0000000000000013
#01018:00000013000000000000130000000000
#0101b:00000000000013000000000000000023
#01012:0000000000000013
#01015:0013130000001300
#01415:00001300000000130000000000000013
#0141b:00130000000000130000000000000013
#01412:00130013
#01418:00000000001300000000000000130000
#01410:00000000000000000000000000000041
#01515:0013130000001300
#01518:00000013001300000000000000130000
#01512:00000000000000130000130000000000
#0151b:00000000000000000000000000000013
#01618:0013130000000000
#01615:00000000001300000000000000000000
#0161a:00000000000000140000000000000000
#01612:00000000000000140000000000000000
#01616:00000024
#0171b:00000013000000000000000000001300
#01717:1300001313000000
#01712:1313
#01716:00000013000000000000000000000000
#0171f:11
#01818:00000013
#01815:0000000000000013
#01816:1300001313000000
#01812:00000013000000000000000000000000
#0181b:1313
#01817:00000013000000000000000000000000
#01915:00000013000000000000000000001300
#01918:00000000000013000000001300000000
#0191b:0013
#01912:13
#02013:0014
#02019:0014
#02018:13000013
#02015:1300000000000013
#0201b:00000013000000000000000000000000
#02012:00000013000000000000000000000000
#02112:1313
#02117:1313
#02116:00000013000000000000000000000000
#0211b:00000013000000000000000000000000
#02115:00000023
#02118:0000000000000023
#02212:00000013000000000000000000000000
#02217:00000013000000000000000000000000
#02215:00000013
#02218:0000000000000013
#02216:2323
#0221b:2323
#02415:00000000000000130000000000000000
#02418:00000000000000130000000000000000
#0241b:23
#02412:23
#02512:1515152500001300
#02519:1515152500000000
#02518:00000000000000000000000000130000
#0251b:00000000000000000000000000000023
#02515:00000000000000000000000000000023
#0251f:00000000000000000000000000000021
#0261b:0000000000130000
#02618:00000013000000000000000013000013
#02615:0000000000000013
#02612:00000013000000000000130000000000
#02610:0000000000410000
#02715:00000013000000000000000000130013
#02718:0013000000001300
#0271b:00000000000013000000000000000013
#02712:1313
#02818:00001300001300130000000000000000
#02812:00000000130000230000000000000000
#02815:00000000000000000000130000130013
#0281b:00000000000000000000000013000013
#02918:00001300000000000000000000000023
#02915:00000000130000000000000000130000
#0291b:00000013
#0291a:0000002400000000
#02912:00000000000000240000000000000023
#0341b:00000013000000000000130000000000
#03418:00000013
#03415:0000000000000013
#03412:00000013000000000000130000000000
#03512:0013000013000000
#0351b:0000001300001300
#03515:00000000001300000000000000130013
#03518:00000000000000000000000000000013
#0361b:0013000000001300
#03618:00000000001300130000000000000013
#03612:0000130000130000
#03615:00000000000000230000000000130013
#03715:00130013
#0371b:00130013
#03718:00001300000000230000000000130000
#03712:0000002300000000
#03716:00000000000000000000000000000023
#03719:00000000000000000000000000000023
#04218:00000000001300000000000000130000
#0421b:0013000000130000
#04215:00130013
#04318:00000000001300000023000000000000
#04315:00000000130013000000002300000000
#0431b:00001300000000230000000000000000
#04312:00000000000000000000000000230000
#04415:00000000001300000000000000130000
#04412:0013000000130000
#04418:00130013
#04515:00000000001300000023000000000000
#04518:00000000130013000000002300000023
#04512:00001300000000230000000000000023
#0451b:00000000000000000000000000230000
#04612:00000000000000130000001300000000
#04615:00000000130000000013000000130000
#04618:00000000001300000000000000000000
#0461b:00000000000000000013000000000000
#04712:00000000001300000023000000230000
#04718:00000000000013000000000000130000
#04715:00000000000000130000001300000013
#0471b:00000000130000001300002300000023
#04815:0000131300001300
#04818:00000013001300000000000000130000
#04812:00000000000000230000130000000000
#0481b:00000000000000000000000000000023
#04918:0013131300000000
#04915:00000013001300000000000000000000
#04917:0000000000000000000000000000000000140000000000000000000000000000
#0491a:00000000000000240000000000000000
#04912:00000000000000240000000000000000
#03012:0000000000130000
#03015:00000013000000000000000013000000
#03018:0000000000000013
#0301b:00000013000000000000130000000000
#03118:00000013000000000000000000130000
#03115:0013000000000013
#03112:0000001300001300
#0311b:13000000000000001300000000000013
#03212:00001300000000130000000013000000
#0321b:0000130000130000
#03215:00000000001300000000000000001300
#03218:00000000000000130000000013000000
#03312:0013001300001300
#0331b:0013001300000000
#03315:26000000260000002600000000130000
#03318:00000013
#03317:00000000000000000000000000000023
#03314:00000000000000000000000000000023
#03310:00000000000000000000000000000041
#0391b:0013000013001300
#03915:00000000000000000000000000130000
#03912:00000000000013000000000000000013
#03918:00000000001300000000000000001300
#0401b:00001300000000130000000013000000
#04012:0000130000130000
#04018:00000000001300000000000000001300
#04015:00000000000000130000000013000000
#04115:0016001600000000
#04118:00000000000000000000001300001300
#0411b:23232300
#04112:23232300
#04110:00000000000000000000000000000041
#01315:00001300000013000000000000130000
#01318:0000130000130013
#0131b:0013000000001300
#01312:00000000000000000013000000000000
#0121b:0000000000000013
#01218:00000000000000230000000013000000
#01215:0000000000130000
#01212:00000000000000230000000000000023
#02318:00000013000000130000000000001300
#02315:00000000000013000000001300000013
#02312:0023
#0231b:23
#0081b:00000000000000130000000013000000
#00812:00000000000000130000000000000023
#00818:00000013001300000000000000000000
#00815:0013130000000000
#00810:00000000000000000000000000000041
#00615:00000000000013000000000000130000
#00618:00000000000000130000001300000013
#00612:00000000130000001300002300000023
#0061b:00000000001300000023000000230000
#0071b:00000000000000130000130000000000
#00715:00000013001300000000000000130000
#00712:00000000000000000000000000000013
#00718:00130013
#0051b:00000000000000130000001300000000
#00512:00000013000000000013000000000000
#00518:00000000130000000013000000130000
#00515:00000000001300000000000000000000
#00412:00000000000000000000000013000013
#0041b:00001300000000130000000000000023
#00418:00000000001300000000000000000000
#00415:0000131300000000
#00218:00000000000013000000000000130000
#00215:00000000000000130000001300000013
#0021b:00000000130000001300002300000023
#00212:00000000001300000023000000230000
#00210:00000000000000000000000000000041
#00318:00000000001300000000000000130000
#0031b:00000000000000000000000000000013
#00315:00130013
#00312:00000000000000130000130000000000
#00112:00000000000000130000001300000000
#0011b:00001300000000000013000000000000
#00115:00000000130000000013000000130000
#00118:00000000001300000000000000000000
#03812:00000013000000000000130000000000
#03815:00000013
#03818:0000000000000013
#0381b:00000013000000000000130000000000
#0111b:00000000000000230000000000000023
#01112:00000000000000000000000000000023
#01115:00000000000000230000000000000000
#0145b:00000000000000000000000000000013
#01455:00000000000000130000000000000000
#01552:00000000000000130000000000000000
#0155b:00000000000000000000000000000013
#02053:0014
#02059:0014
#02052:00000023000000000000000000000000
#0205b:00000023000000000000000000000000
#02055:53
#02058:53
#02152:5313
#02157:5313
#02156:00000053000000000000000000000000
#0215b:00000053000000000000000000000000
#0225b:5313
#02256:5313
#02257:00000053000000000000000000000000
#02252:00000053000000000000000000000000
#0245b:53
#02452:53
#02455:00000000000000230000000000000000
#02458:00000000000000230000000000000000
#01752:6363
#01757:0063
#01756:00000023000000000000000000000000
#0185b:53
#01857:00000023000000000000000000000000
#02752:5313
#0275b:00000000000013000000000000000013
#02755:00000053000000000000000000000053
#02852:00000000000000130000000000000000
#0285b:00000000000000000000000000000013
#02855:00000000000000000000000000000053
#02858:00000000000000530000000000000000
#0355b:0000001300000000
#03552:0013
#03558:00000000000000000000000000000013
#03555:00000000000000000000000000000053
#03658:00000000000000530000000000000013
#03655:00000000000000130000000000000053
#0495a:00000000000000640000440000000000
#04957:0000000000000000000000000000000000240000000000000000000000000000
#04952:00000000000000340000000000000000
#03158:00000063000000000000000000000000
#03152:0000001300000000
#0315b:63000000000000001300000000000063
#03252:00000000000000630000000000000000
#0405b:00000000000000530000000000000000
#03952:00000000000013000000000000000053
#0395b:0013
#03758:0053000000000000
#0375b:00230000
#03756:00000000000000000000000000000053
#03759:00000000000000000000000000000053
#0165a:00000000000000540000000000000000
#01656:00000014
#0075b:00000000000000130000000000000000
#00752:00000000000000000000000000000013
#00852:00000000000000530000000000000013
#0045b:00000000000000630000000000000013
#04852:00000000000000130000000000000000
#0485b:00000000000000000000000000000013
#0475b:00000000000000000000000000000013
#02658:00000023000000000000000000000000
#02652:00000023000000000000000000000000
#0265b:00000000000000430000000000000000
#02655:00000000000000430000000000000000
#0255b:00000000000000000000000000000063
#02555:00000000000000000000000000000063
#03055:00000023000000000000000000000000
#0305b:00000023000000000000000000000000
#03058:00000000000000330000000000000000
#03052:00000000000000330000000000000000
#02952:00000000000000000000000000000053
#02958:00000000000000000000000000000053
#0345b:00000023000000000000000000000000
#03452:00000023000000000000000000000000
#03459:00000000000000130000000000000000
#03456:00000000000000130000000000000000
#03357:00000000000000000000000000000063
#03354:00000000000000000000000000000063
#03852:00000023000000000000000000000000
#0385b:00000023000000000000000000000000
#03854:00000000000000130000000000000000
#03857:00000000000000130000000000000000
#00652:00000000000000000000000000000013
#0105b:00000000000000000000000000000013
#01252:00000000000000000000000000000013
#04552:00000000000000000000000000000013
#01952:13
#0195b:0013
#000320:00000000000000000000000000000013
#001320:0023000000000000
#001380:0000000000000013
#002380:23
#002351:13230000
#003381:00000000000000130000000000000000
#0033b1:0000000000230000
#003351:00000000000000000000000000000013
#004321:0023000000000000
#0043b1:00000000000000130000000000000000
#004371:00000023
#005351:0000000000000013
#006351:23
#006380:13230000
#007350:00000000000000130000000000000000
#007320:0000000000230000
#007380:00000000000000000000000000000013
#0083b0:0023000000000000
#008320:00000000000000130000000000000000
#008360:00000023
#0083b0:00000000000000000000000000000013
#009380:0023000000000000
#009350:00000000000000130000000000000000
#009320:0000000000230000
#009380:00000000000000000000000000000013
#0103b0:0023000000000000
#010320:00000000000000130000000000000000
#010350:0000000000230000
#011350:0013002300000000
#011320:00330000
#0113b1:0013002300000000
#011381:00330000
#0113b1:0000000000130023
#011381:00000033
#011320:0000000000130023
#011350:00000033
#012320:0013002300000000
#012350:00330000
#012381:0013002300000000
#0123b1:00330000
#0133b1:00000000000000130023000000000000
#013321:00000000000000000000000000000013
#014321:00230000000000000000000000000000
#015381:00000000000000130000000000000000
#0153b1:0000000000230000
#015351:00000000000000000000000000000013
#016321:0023000000000000
#0163a1:00000000000000140000000000000000
#016361:00000024
#017321:1300002300000000
#017361:00000033000000000000000000000000
#017321:0013
#017361:00000023
#017370:0013
#0173b0:00000023
#0183b0:1300002300000000
#018370:00000033000000000000000000000000
#0193b0:13
#019380:00000023000000000000000000000000
#019320:0013
#019350:00000000000000000000002300000000
#020380:1300002300000000
#0203b0:00000033000000000000000000000000
#020351:1300002300000000
#020321:00000033000000000000000000000000
#021371:1300002300000000
#0213b1:00000033000000000000000000000000
#021320:1300002300000000
#021360:00000033000000000000000000000000
#022360:1300002300000000
#022320:00000033000000000000000000000000
#0223b1:1300002300000000
#022371:00000033000000000000000000000000
#023321:13
#023351:00000023000000000000000000000000
#0233b1:0013
#023381:00000000000000000000002300000000
#024321:1300000000000023
#024351:00000000000000530000000000000000
#0243b0:1300000000000023
#024380:00000000000000530000000000000000
#0253b0:00000000000000000000000000000013
#026380:00000053000000000000000000000000
#0263b0:00000000000000230000000000000000
#025351:00000000000000000000000000000013
#026321:00000053000000000000000000000000
#026351:00000000000000230000000000000000
#027321:13
#027351:0023000000000000
#027351:00000013000000000000000000000000
#027321:0000002300000000
#027351:00000000000000000000000000000013
#028321:0023000000000000
#028381:00000000000000130000000000000000
#0283b1:0000000000230000
#028351:00000000000000000000000000000013
#029321:0023000000000000
#029321:00000000000000000000000000000013
#030351:00000053000000000000000000000000
#030321:00000000000000230000000000000000
#029380:00000000000000000000000000000013
#0303b0:00000053000000000000000000000000
#030380:00000000000000230000000000000000
#0313b0:13
#031380:0023000000000000
#031380:00000013000000000000000000000000
#0313b0:0000002300000000
#0313b0:00000000000000000000000000000013
#032380:0023000000000000
#032320:00000000000000130000000000000000
#032350:0000000000230000
#033370:00000000000000000000000000000013
#0343b0:00000053000000000000000000000000
#034390:00000000000000230000000000000000
#033341:00000000000000000000000000000013
#034321:00000053000000000000000000000000
#034361:00000000000000230000000000000000
#035381:1323000000000000
#0353b1:00000013002300000000000000000000
#035351:00000000000000000000000000000013
#036321:0023000000000000
#036381:00000000000000130000000000000000
#0363b1:0000000000230000
#036351:00000000000000000000000000000013
#037321:0023000000000000
#037380:0013002300000000
#0373b0:00330000
#037360:00000000000000000000000000000013
#038320:00000053000000000000000000000000
#038340:00000000000000230000000000000000
#037391:00000000000000000000000000000013
#0383b1:00000053000000000000000000000000
#038371:00000000000000230000000000000000
#039351:1323000000000000
#039321:00000013002300000000000000000000
#039321:00000000000000000000000000000013
#040351:0023000000000000
#0403b1:00000000000000130000000000000000
#040381:0000000000230000
#041351:00000000000000000000001300002300
#041321:00000000000000000000000000000013
#042321:0023000000000000
#042351:00000000000000130000230000000000
#042321:00000000000000000000000000000013
#043321:0023000000000000
#0433b1:00000000000000000000000000000013
#0443b1:0023000000000000
#044381:00000000000000130000230000000000
#0443b1:00000000000000000000000000000013
#0453b1:0023000000000000
#046381:0000000000000013
#047381:23
#047350:13230000
#048380:00000000000000130000000000000000
#0483b0:0000000000230000
#048350:00000000000000000000000000000013
#049320:0023000000000000
#0493a0:00000000000000140000240000000000
#049370:0000000000000000000000000000000000540000000000000000000000000000
