This file was generated by Ched 2.7.0.0.
#TITLE ""
#ARTIST ""
#DESIGNER ""
#DIFFICULTY 0
#PLAYLEVEL
#SONGID ""
#WAVE ""
#WAVEOFFSET 0
#JACKET ""
#REQUEST "ticks_per_beat 480"
#00002: 4
#BPM01: 130
#00008: 01
#TIL00: ""
#HISPEED 00
#MEASUREHS 00
#00915:0000130000000013
#00918:0000001300001300
#01018:0000001300001300
#01015:0000130000000013
#01612:00000000000000140000000000000000
#01618:0013000000000000
#01616:00000024
#0161b:00000033330000000000000000000000
#0181b:00000013
#01815:0000000000000013
#01818:0013
#01812:13
#01816:00000013000000000000000000000000
#0171b:1300000000000013
#01717:00000013000000000000000000000000
#0171f:11
#01918:0000001300000000
#01915:0000000000000013
#02013:0014
#02019:0014
#02015:00000013
#02018:0000001300000013
#02115:1300000000000023
#02118:00000023
#02112:00000033000000000000000000000000
#02215:00000013
#02218:2300000000000013
#0221b:00000033000000000000000000000000
#02518:00000000000000000000000000140000
#02512:00000000000000000000000014000024
#02513:1414142400000000
#02519:1414142400000000
#0251f:00000000000000000000000000000021
#02417:00000000000000130000000000000000
#0241b:23
#02615:00000014000000000000000013000000
#0261b:0000000000130000
#02618:0000000000000013
#02610:0000000000410000
#02718:0013000000001300
#02715:00000000000000000000000000130000
#0271a:00000000000000000000000000000014
#02712:1313
#0271b:0013
#02815:00001300130000000000000000130000
#02818:00000000001300000000130013000000
#0281a:00000000000000000000000000000014
#02812:00000000000000240000000000000000
#02915:00001300130000230000000000000000
#02914:00000000000000000000000000140000
#0291a:00000000000000000000000014000024
#02918:0000002300000000
#04218:00000000130000000000000000130000
#04215:00000000001300000000000013000000
#04318:00000000130000000023000000000000
#04315:00000000001300000000002300000000
#0431b:00000000000000230000000000000000
#04312:00000000000000000000000000230000
#03215:0000130000000013
#03218:00000000001300000000000013000000
#03312:00001400000000002400000014000024
#0331a:2400001400000000
#03318:00000000000000000000000000140000
#03316:00240000
#03310:00000000000000000000000000000041
#01318:00000000130000000000000000130000
#01315:0000001300001300
#0131b:00001300000000130000130000000000
#01312:00000000000000000000000000000013
#01418:00130013
#01415:00000000001300000000000000130000
#01412:0013000000000000
#0141b:00000000000000130000000000000013
#01410:00000000000000000000000000000041
#01212:0000000000000013
#01215:0000001300001300
#01218:0000000000130000
#0121b:00000000000000230000000000000000
#02318:00000013000000130000000000001300
#02315:00000000000013000000001300000013
#02312:0023
#0231b:23
#00318:00000000130000000000000000130000
#00315:00000000001300000000000013000000
#00418:00000000001300000000000000000000
#00415:0000131300000000
#0041b:00000000000000000000000000000023
#0011b:00000000000000130000001300000000
#00115:00000000001300000000000000130000
#00112:00000000000000000013000000000000
#00118:0000130000000013
#00218:00000000000013001300002300000000
#00215:00000000001300130000000000230000
#00212:13000000000000000023000000000000
#0021b:13000000000000000000000000000023
#00210:00000000000000000000000000000041
#00715:00000000130000000000000000130000
#00718:00000013001300000000000013000000
#00512:00000000000000130000001300000000
#00518:00000013001300000000000000130000
#0051b:00000000000000000013000000000000
#00515:0000130000000013
#00615:00000000000013001300002300000000
#00618:00000000001300130000000000230000
#0061b:13000000000000000023000000000000
#00612:13000000000000000000000000000023
#01115:0000001300000000
#01118:0000000000000013
#01112:00000000000000000000000000000023
#0111b:00000000000000230000000000000000
#01512:00000000000000130000003333000000
#01515:0000000000130000
#01518:0013000000000000
#0151b:00000033330000000000000000000013
#03017:00000014000000000000000000000000
#03012:0000000000130000
#03018:00000013
#03015:0000000000000013
#0311b:1313
#03115:0013000000001313
#03112:0013
#03118:00000000000000000000000000130000
#03416:00000014000000000000000000000000
#0341b:0000000000130000
#03418:00000013
#03415:0000000000000013
#03518:0013000000001300
#03515:00000000000000000000000000130000
#0351a:00000000000000000000000000000014
#03512:1313
#0351b:0013
#03612:00001300000000240000000000130000
#03615:00130000
#0361b:00000000001300000000130000000000
#03618:00000013
#0361a:00000000000000000000000000000014
#03712:0013000000000000
#03715:00000000130000230000000000000000
#03714:00000000000000000000000000140000
#0371a:00000000000000000000000014000024
#03718:0000002300000000
#04015:0000130000000013
#04018:00000000001300000000000013000000
#04012:00000000000000130000000000000000
#0391b:13000000000000001300000000000013
#03915:0013000000001313
#03912:0013
#03918:00000000000000000000000000130000
#03816:00000014000000000000000000000000
#03812:0000000000130000
#03815:00000013
#03818:0000000000000013
#04118:00001300000013000000001300001300
#0411b:2323
#04115:00230000
#04112:2323
#04110:00000000000000000000000000000041
#04415:00000000130000000000000000130000
#04418:00000000001300000000000013000000
#04515:00000000130000000023000000000000
#04518:00000000001300000000002300000000
#04512:00000000000000230000000000000023
#0451b:00000000000000000000000000230000
#04718:00000000000013001300002300000000
#04715:00000000001300130000000000230000
#0471b:13000000000000000000000000000023
#04712:13000000000000000023000000000000
#04915:0013131300000000
#04918:00000013001300230000000000000000
#04818:00000013001300230000000000130000
#04812:00000000000000000000130000000023
#04815:0000131300001300
#0481b:0000000000130000
#04618:0000130000000013
#0461b:00000000000000130000001300000000
#04615:00000000001300000000000000130000
#04612:00000000000000000013000000000000
#0081b:00003333330000000000000000000000
#00810:00000000000000000000000000000041
#02053:0014
#02059:0014
#02155:53
#02152:0013
#0245b:53
#02457:00000000000000230000000000000000
#0175b:53
#01757:00000023000000000000000000000000
#01852:63
#01856:00000023000000000000000000000000
#02652:00000000000000340000000000000000
#02655:00000024000000000000000000000000
#02552:00000000000000000000000000000054
#0275a:00000000000000000000000000000014
#02852:00000000000000140000000000000000
#0285a:00000000000000000000000000000014
#01652:00000000000000640000000000000000
#01656:00000014
#01658:0063000000000000
#0145b:00000000000000130000000000000053
#01552:00000000000000530000000000000000
#0155b:00000000000000000000000000000063
#01555:0000000000530000
#01558:0053000000000000
#0225b:0013
#02258:63
#03057:00000024000000000000000000000000
#0305a:00000000000000440000000000000000
#0295a:00000000000000000000000000000064
#03456:00000024000000000000000000000000
#03452:00000000000000340000000000000000
#0355a:00000000000000000000000000000014
#0365a:00000000000000000000000000000014
#03652:00000000000000140000000000000000
#03352:00000000000000000000000000000054
#04052:00000000000000630000000000000000
#0395b:00000000000000000000000000000063
#03856:00000024000000000000000000000000
#0385a:00000000000000440000000000000000
#0375a:00000000000000000000000000000064
#04958:0000000000130000
#04852:00000000000000000000000000000013
#04858:00000000000000130000000000000000
#0475b:00000000000000000000000000000013
#00652:00000000000000000000000000000013
#0045b:00000000000000000000000000000013
#0033b0:00000000000000130000230000000000
#003320:00000000000000000000000000000013
#004320:0023000000000000
#004380:00000000000000130000000000000000
#0043b0:00000023
#007320:00000000000000130000230000000000
#0073b0:00000000000000000000000000000013
#0083b0:00003333330000000000000000000000
#008380:00000000002300000000000000000000
#008350:00000000000000130000000000000000
#008320:00000023
#0083b0:00000000000000000000000000000013
#0093b0:0023000000000000
#009320:00000000000000130000230000000000
#0093b0:00000000000000000000000000000013
#010380:0023000000000000
#010320:00000000000000130000000000000000
#010350:0000000000230000
#011380:0013230000000000
#011350:0000000000132300
#012380:0013230000000000
#0143b0:00000000000000000000000000000013
#015380:0033000000000000
#0153b0:00000033332300000000000000000000
#015320:00000000000000130000003333230000
#015350:0000000000330000
#0153b0:00000000000000000000000000000013
#016380:0033000000000000
#0163b0:00000033332300000000000000000000
#016320:00000000000000140000000000000000
#016360:00000024
#0173b0:1300002300000000
#017370:00000033000000000000000000000000
#017350:00001323
#018320:1300002300000000
#018360:00000033000000000000000000000000
#019350:13
#019320:00000023000000000000000000000000
#019380:0013
#0193b0:00000000000000000000002300000000
#020350:13
#020320:00000023000000000000000000000000
#021350:13
#021320:00000033000033002300000000000000
#022380:13
#0223b0:00000033000033002300000000000000
#0243b0:1300000000000023
#024370:00000000000000530000000000000000
#025320:00000000000000000000000000000014
#026350:00000054000000000000000000000000
#026320:00000000000000240000000000000000
#027350:00000013000023000000000000000000
#0293a0:00000000000000000000000000000014
#030370:00000054000000000000000000000000
#0303a0:00000000000000240000000000000000
#031380:00000013000023000000000000000000
#0313b0:00000000000000000000000000000013
#0323b0:0023000000000000
#032320:00000000000000130000230000000000
#033320:00000000000000000000000000000014
#034360:00000054000000000000000000000000
#034320:00000000000000240000000000000000
#035350:00000013000000000000000000000000
#035320:0000002300000000
#0373a0:00000000000000000000000000000014
#038360:00000054000000000000000000000000
#0383a0:00000000000000240000000000000000
#039380:00000013000000000000000000000000
#0393b0:0000002300000000
#0393b0:00000000000000000000000000000013
#040380:0023000000000000
#040320:00000000000000130000000000000000
#040350:0000000000230000
#041320:00000000000000000000000000000013
#042320:0023000000000000
#0423b0:00000000000000130000230000000000
#042320:00000000000000000000000000000013
#043320:0023000000000000
#0433b0:00000000000000000000000000000013
#0443b0:0023000000000000
#044320:00000000000000130000230000000000
#0443b0:00000000000000000000000000000013
#0453b0:0023000000000000
#049380:00000000000000130000230000000000
