This file was generated by Ched 2.7.0.0.
#TITLE ""
#ARTIST ""
#DESIGNER ""
#DIFFICULTY 0
#PLAYLEVEL
#SONGID ""
#WAVE ""
#WAVEOFFSET 0
#JACKET ""
#REQUEST "ticks_per_beat 480"
#00002: 4
#BPM01: 130
#00008: 01
#TIL00: ""
#HISPEED 00
#MEASUREHS 00
#00018:0000000000000013
#00012:00000000000000000000000000000013
#0091b:00000013001300130000000000000013
#00912:00001500000000000000001300130013
#00919:0000000000150000
#00916:00000000000015130000000000000000
#00914:00150000
#00915:0000000000000015
#00917:00000015
#0101b:00000013001300130000000000000000
#01016:0000001500000000
#01014:00150000
#01012:00001500000000130000000000130023
#01015:0000000000000025
#01017:00000025
#01019:0000000000250000
#0141a:00000000000000000000130000000014
#01417:00130000
#01412:00131300001300140000000000000000
#01415:0000000000000013
#01418:00002600000026001300000000140000
#01413:00000013
#01414:00000000000000000014000000000000
#01416:00000000000000000000001400000000
#01410:00000000000000000000000000000041
#0151b:00000000000000000000000000130013
#01512:00000000001300130000000000000000
#01516:00000013000000000000000000000000
#01517:00000000000000000000001300000000
#01712:1300001313000013
#01717:00000013000000001300000000000000
#01718:00000000000000000000000000000013
#01716:0000001300000000000000000000000000000000000000001300000000000000
#0171b:0000000000000000001300000000000000000000000000001300000000000000
#0171f:11
#0171a:24
#01817:0000001300000000000000000000000000000000000000001300000000000000
#01815:13000000000000000000000000000013
#0181b:1300001313000013
#01816:00000013000000001300000000000000
#01812:0000000000000000001300000000000000000000000000001300000000000000
#02014:0014
#02018:00000013000000001400000000000000
#02016:00000013
#02012:000000130000000000000000000000000000000000000000000000001c000000
#02015:13
#0201b:0000000000000000001300000000000000000000000000001300000000000000
#02112:00140000141c232c
#02116:1414140014000000
#02118:00140014001400000000000000000000
#0211a:14140000
#02114:00140014001400000000000000000000
#02117:00000023
#02216:2414140024001300
#02212:240014000000001c
#0221b:00000013
#02214:00140014001400000000000000000000
#02218:00140014001400000000000000000000
#0221a:0014000024000000
#02416:00000000000000130000000000000000
#02417:000000000000000000000000000000000000000000000000000000000000000000000000000000000000000000000000000000000000000000000000000000000000000000000000000000000000000000000000001300000000000000000000000000000000000000000000000000000000000000000000000000000000000000000000000000000000000000000000000000000000000000000000000000000000000000000000000000000000000000000000000000000000000000000000
#0241b:23
#02412:23
#0261b:0000000000130000
#02619:00000013
#02617:0000000000000013
#02616:00000013000000000000130000000000
#02614:00000013
#02612:00000013000000000000000000001300
#02610:0000000000410000
#02716:00001313000000000000000000000013
#02715:00001613
#02718:00000000130000000000000000130000
#0271a:00000000000000000000000000000014
#02712:00000000000000000000000000130000
#02719:13
#02714:13
#0271b:0013000000000000
#0331b:00001300000000000000000000130023
#03315:00130013260000000000130013000000
#03312:00000000001300132600000000130000
#03318:26000000000013000013001300000000
#03316:00000000000000000000000000000024
#03310:00000000000000000000000000000041
#0341b:00000013000000000000000013000000
#03412:00000013000000000000130000001300
#03416:00000013
#03417:0000000000130013
#03512:00001400001400001300000000130000
#0351b:0000001300001300
#03516:1400001414000000
#03518:00000000000000000000000000130000
#0351a:00000000000000000000000000000014
#03515:00000000000000000000000013000013
#0281b:0013000000000000
#0281a:00000000001400000000000014140014
#02817:00000000000000130000000000000000
#02812:00000000141400240000130000140000
#02816:00000000000000000000000000000013
#04218:00000000001300260000000000130026
#0421b:0013000000130000
#04215:00130013
#04212:0000001300000013
#04318:00000000001300260023000000000000
#04312:00000000000013000000000000001426
#0431b:0013000000000000
#04315:00131400
#04314:0000000000140000
#04313:00000014
#04317:00000000000000000000002300000000
#04316:00000000000000000000000000230000
#04812:00000000130000240000000013000000
#04816:00000014000014000000140014140023
#0481b:00000000001300000000000000130000
#0481a:00000000000000000000000000000024
#04817:00000000000000230000000000000000
#04918:00001600160016260000000000000000
#04912:00000016001600260000000000000000
#04915:0000000000000000000000000000000000160000000000000000000000000000
#02916:00000000130000001400000014140024
#02917:0013000000000000
#0291a:00000000000024240014000000001400
#02912:00000000000000000014001400000023
#03218:00000000130000000000000000130000
#03212:00000000130000130000000000001300
#03215:00000000001300000000000013000000
#0321b:00000000000000130000000013000000
#04118:00001300001300130000001300001326
#04115:00130013000013000000000000000000
#0411a:2424
#04112:23242300
#0411b:00230000
#04110:00000000000000000000000000000041
#03716:00000000000000000000000014140024
#0371a:00000000000000000000001400000000
#03712:0013000000000000000013000000260000000000000000000000000014002300
#03718:00000013000026001300000000000000
#0371b:00001300000000000013000000000000
#03715:00000000130000000013000000000000
#01315:00001300000000000013000000000013
#01317:00131313
#01312:00000000130013130000000013130000
#01318:0026002600260026
#0191b:00000013000000001300000000000013
#01916:00000000000000000000001300000000
#01912:13000000000000001400001300000000
#01917:00000013000000000000000000000000
#0191a:14
#01918:00000000000000130000000000000000
#0231b:23001313000000000000000000130000
#02317:00000000001300000000001300000000
#02312:0000000000131c002300131300001c00
#02316:00000013000000000000000000130000
#00217:00000000000000000013000000130000
#00216:00000000000000000000001300000013
#0021b:00131300
#00215:00000000130000130000000000000000
#00218:0013001300000000
#00212:00000000001300000024000000240000
#0021a:00000000000000000000002400000024
#00210:00000000000000000000000000000041
#00117:00000000000000000013000000000000
#00112:00001300001300000000000000130000
#00115:00130000
#0011b:00000000000000130000001300000000
#00118:00000000001300000000000000000000
#0381b:00000013000000000000130000001300
#03817:00000013
#03816:0000000000130013
#03812:00000013000000000000000013000000
#0391a:00001400001400000000000000000014
#0391b:00001313
#03912:00000000000013000000000013000013
#03916:1400001414000000
#03915:0000000000000013
#03918:00000000000000000000000000130000
#04415:00000000001300000000000000130000
#04412:00001300000000260000130000000026
#04418:00130013
#0441b:0000001300000013
#04515:00000000001300000023000000000000
#0451b:0000001300000000
#04512:00001300000000260000000000000024
#04518:00000000130000000000140000000026
#04517:00000000000000001400000000230000
#0451a:0000000000000014
#04519:00000014
#04516:00000000000000000000002300000000
#00616:00000000000000000013000000130000
#00617:00000000000000000000001300000013
#00612:00000000130000001300002400000024
#00618:00000000130000130000000000000000
#00615:0013001300000000
#0061b:00000000001300000000000000000000
#0061a:00000000000000000024000000240000
#0051b:00001300001300000000000000130000
#00518:00130000
#00515:00000013000000000000000000000000
#00516:00000000000000000013000000000000
#00512:00000000000000130000001300000000
#0031b:0013000000001313
#00312:0000131300130000
#00316:00000000000000000000000000130013
#00317:00000000001300130000000000000000
#00412:00000000130013000023000000230000
#0041b:00001300000000130000000000000000
#00417:00000000001300000013000000000000
#0041a:00000000000000000000000000000024
#00415:00000000000000230000002300000000
#0071a:00000000000000140000000000000000
#00715:00000013000000000000000013000000
#00712:00001300001300000000000000130014
#00718:00000000130000000000001300000000
#00716:00000000000000130000000000000000
#00717:00000000000000000000000000000013
#0071b:00000000001300000000130000130000
#0081b:00000000001300000023000000230000
#00812:00000000001300130000000000000023
#00818:00000013000000230000002300000000
#00815:0013130000001313
#00816:00000000000000000013000000000000
#00817:00000000000000000000000000000013
#00810:00000000000000000000000000000041
#0111b:0013001300000000
#01117:00130000
#01112:00000000140000000000130000001314
#01116:00001400000000240000140013000024
#0111a:00000000000000140000000014000000
#02512:1616162600000000
#02518:1616162600000000
#02516:00000000000000000000000014140024
#0251b:00000000000000000000000000130023
#0251f:00000000000000000000000000000021
#03117:00001313000000000000000000000000
#03115:00000000130000001600000000130000
#03112:00001300000000000000000013000013
#03118:0000000000000013
#03114:13
#03119:13
#0311b:00000000000000000000000000000013
#0121b:00001300000013130000000000130023
#01217:00130000
#01216:00001400000000240000000000002500
#01212:0000140000250000
#01214:00000025
#04015:00000000130000000000130000130000
#0401b:00000000130000130000000000001300
#04018:00001300001300000000000013000000
#04012:00000000000000140000000013000000
#04016:0013000000000000000000000000000000000000000000000000000000000000
#04017:0000000000000000000000000000000000130000000000000000000000000000
#04717:00000000000000000013000000130000
#04716:00000000000000000000001300000023
#0471b:00131300
#04715:00000000130000130000000000000000
#04718:0013001300000000
#04712:00000000001300000024000000240000
#0471a:00000000000000000000002400000024
#04616:00001400141400140014000000130000
#04612:00001300000000130000001300000000
#0461b:00000000130000000013001300000000
#01616:00000014001400230000002300140000
#01612:00000000000000000023000000230000
#03612:0013000000000000130000000000240000000000130000000000130000000000
#03615:00000000001300000000001300000013
#0361a:00000000000000000000000000000014
#0361b:0000000013000000000013000000000000130000000000001300000000000000
#03618:00000013000000130000000000130000
#03012:0000000000130000
#03014:00000013
#03016:0000000000000013
#03017:00000013000000000000130000000000
#03019:00000013
#0301b:00000013000000000000000000001300
#0145a:00000000000000000000000000000014
#01552:00000000000000130000000000000000
#0155b:00000000000000000000000000000013
#02054:0014
#02058:00000053000000001400000000000000
#02052:0000002300000000000000000000000000000000000000000000000000000000
#0205b:0000000000000000002300000000000000000000000000000000000000000000
#02055:53
#02158:00640054005400000000000000000000
#02152:0024000014000000
#02156:2424240014000000
#0215a:24240000
#02154:00640054005400000000000000000000
#0245b:53
#02452:53
#02456:00000000000000230000000000000000
#02457:000000000000000000000000000000000000000000000000000000000000000000000000000000000000000000000000000000000000000000000000000000000000000000000000000000000000000000000000002300000000000000000000000000000000000000000000000000000000000000000000000000000000000000000000000000000000000000000000000000000000000000000000000000000000000000000000000000000000000000000000000000000000000000000000
#01752:6363
#01757:00000063000000006300000000000000
#0175b:0000000000000000002300000000000000000000000000000000000000000000
#01756:0000002300000000000000000000000000000000000000000000000000000000
#0175a:44
#02755:0016
#02756:00000053000000000000000000000053
#0275a:00000000000000000000000000000014
#02758:00530000
#02752:0000001300000000
#0275b:0000001300000000
#02857:00000000000000530000000000000000
#0285a:00000000000000000000000000000014
#02856:00000000000000000000000000000053
#02852:00000000000000140000230000000000
#0285b:0023000000000000
#04958:00000000000000660000460000000000
#04955:0000000000000000000000000000000000260000000000000000000000000000
#04952:00000000000000360000000000000000
#02957:0053000000000000
#02956:00000000630000000000000000000054
#02952:00000000000000000000000000000053
#02256:2424240014000000
#0225a:0024000014000000
#02254:00540064006400000000000000000000
#02252:24240000
#02258:00540064006400000000000000000000
#0355b:0000004300000000
#03552:0033
#0355a:00000000000000000000000000000014
#03555:00000000000000000000000000000053
#0395b:0043
#03952:00000000000033000000000000000063
#0395a:00000000000000000000000000000014
#0075a:00000000000000140000000000000000
#00752:00000000000000000000000000000014
#00756:00000000000000530000000000000000
#00757:00000000000000000000000000000063
#00852:00000000000000530000000000000013
#00856:00000000000000000023000000000000
#00857:00000000000000000000000000000023
#0095b:00000000000000130000000000000053
#00952:00000000000000000000000000000013
#00956:00000000000000230000000000000000
#00256:00000000000000000000000000000053
#00357:00000000000000630000000000000000
#00356:00000000000000000000000000000053
#0185b:5353
#01856:00000053000000005300000000000000
#01852:0000000000000000002300000000000000000000000000000000000000000000
#01857:0000002300000000000000000000000000000000000000000000000000000000
#01956:00000000000000000000002300000000
#01952:53000000000000001400002300000000
#0195b:00000023000000005300000000000000
#01957:00000023000000000000000000000000
#0195a:14
#02558:16160000
#02552:0016000000000000
#02556:00000000000000000000000000000064
#0255b:00000000000000000000000000000063
#03157:00000063000000000000000000000000
#03155:00631600
#0315b:00000000000013000000000000000063
#03152:00000000000013000000000000000013
#03257:0013000000000000
#0325b:00000000000000130000000000000000
#03256:0000000000130000
#03252:00000000000000630000000000000000
#0045a:00000000000000000000000000000014
#00457:00000000000000000023000000000000
#0045b:00000000000000630000000000000000
#04052:00003300000000140000000000000000
#04056:0023000000000000000000000000000000000000000000000000000000000000
#0405b:00000000000000530000430000000000
#04057:0000000000000000000000000000000000230000000000000000000000000000
#0415a:4444
#04152:00340000
#04552:00000000000000000000000000000014
#01656:00000000000000000000000000240000
#00657:00000000000000000000000000000063
#00652:00000000000000000000000000000014
#01156:0064000000540000
#0115a:00000000000000240000000024000000
#01152:00000000240000000000000000000024
#01256:0064000000000000
#0125b:00000000000000630000000000000013
#01252:00240000
#03652:0023000000000000000000000000140000000000000000000000000000000000
#0365a:00000000000000000000000000000014
#0365b:0000000000000000000000000000000000230000000000000000000000000000
#03658:00000000000000630000000000000000
#03655:00000000000000000000000000000053
#03752:0023000000000000000000000000000000000000000000000000000000006300
#03756:00000000000000000000000000000054
#0475a:00000000000000000000000000000014
#0485a:00000000000000000000000000000014
#04852:00000000000000140000000000000000
#01052:00000000000000530000000000000013
#0105b:00000000000000130000000000000000
#03352:0016
#03355:00160000
#03358:16
#0335b:00000000000000000000000000000053
#03356:00000000000000000000000000000064
#02652:00000023000000000000000000000000
#02656:00000023000000000000000000000000
#0265b:00000000000000430000000000000000
#02657:00000000000000430000000000000000
#03452:00000023000000330000000000000000
#0345b:00000023000000000000000000000000
#03457:00000000000000430000000000000000
#0305b:00000023000000000000000000000000
#03057:00000023000000000000000000000000
#03052:00000000000000330000000000000000
#03056:00000000000000330000000000000000
#03852:00000023000000000000000000000000
#0385b:00000023000000430000000000000000
#03856:00000000000000330000000000000000
#0003b0:00000000000000000000000000000013
#0013b0:0023000000000000
#001360:00000000000000130000002300000000
#001320:00000000000000000033000000000000
#001370:0000000000000013
#0023b0:23
#002361:13
#002321:0023000000000000
#002361:00000000000000000000000000000013
#003321:0023000000000000
#003371:00000000000000130000000000000000
#0033b1:0000000000230000
#003361:00000000000000000000000000000013
#004321:0023000000000000
#0043b1:00000000000000130000002300000000
#004371:00000000000000000053000000000000
#004321:00000000000000000000000000000013
#005321:0023000000000000
#005371:00000000000000130000002300000000
#0053b1:00000000000000000033000000000000
#005361:0000000000000013
#006321:23
#006370:13
#0063b0:0023000000000000
#006370:00000000000000000000000000000013
#0073b0:0023000000000000
#007360:00000000000000130000000000000000
#007320:0000000000230000
#007370:00000000000000000000000000000013
#0083b0:0023000000000000
#008320:00000000000000130000002300000000
#008360:00000000000000000053000000000000
#008370:00000000000000000000000000000013
#0093b0:0023000000000000
#009360:00000000000000130000000000000000
#009320:0000000000230000
#0093b0:00000000000000000000000000000013
#010370:0023000000000000
#010320:00000000000000130000000000000000
#010360:0000000000230000
#011360:0014002400000000
#011320:00340000
#0113a0:00000000000000140000000034000000
#011360:0000000000340024
#011320:00000000000000000000000000000014
#012360:0034002400000000
#012320:00340000
#0123b0:00000000000000130000000000000000
#012370:0000000000230000
#014360:00000000000000000000000000000013
#015320:0023000000000000
#0153b1:00001323000000000000000000000000
#015371:00000000132300000000000000000000
#015371:00000000000000130000000000000000
#0153b1:0000000000230000
#015320:00000000000000000000132300000000
#015360:00000000000000000000000013230000
#015360:00000000000000000000000000000013
#016320:0023000000000000
#0163b1:00001323000000000000000000000000
#016321:00000000132300000000000000000000
#0163a1:00000000000000142400000000000000
#016361:00000000000000000014240000000000
#0163a1:00000000000000000000001424000000
#016361:00000000000000000000000000140000
#0173a1:24
#017320:13000023000000000000000000000000
#017360:0000005300000000000000000000000000000000000000000000000000000000
#017371:00000013000023000000000000000000
#0173b1:0000000000000000005300000000000000000000000000000000000000000000
#017321:0013
#017361:0000000000230000
#017370:0013
#0173b0:0000000000230000
#0183b0:13000023000000000000000000000000
#018370:0000005300000000000000000000000000000000000000000000000000000000
#018361:00000013000023000000000000000000
#018321:0000000000000000005300000000000000000000000000000000000000000000
#0183b1:0013
#018371:0000000000230000
#018360:0013
#018320:0000000000230000
#019320:1300002300000000
#019370:00000033000000000000000000000000
#0193b1:00000013000000000000000000000000
#019361:0000002300000000
#0193b1:0000000013000023
#019361:00000000000000000000003300000000
#019320:00000000000000000000001300000000
#019370:0000000000000023
#020380:13000033000023000000000000000000
#0203b0:0000000000000000005300000000000000000000000000000000000000000000
#020351:13000033000023000000000000000000
#020321:0000005300000000000000000000000000000000000000000000000000000000
#0213a1:14540000
#021381:00540034005400000000000000000000
#021361:0054002400000000
#021360:14540000
#021340:00540034005400000000000000000000
#021320:0054002400000000
#022320:14540000
#022340:00540034005400000000000000000000
#022360:0054002400000000
#022361:14540000
#022381:00540034005400000000000000000000
#0223a1:0054002400000000
#023321:13
#023361:0023000000000000
#0233b1:0013
#023371:0000000000230000
#024321:1300000000000023
#024361:00000000000000530000000000000000
#0243b0:1300000000000023
#024370:000000000000000000000000000000000000000000000000000000000000000000000000000000000000000000000000000000000000000000000000000000000000000000000000000000000000000000000000005300000000000000000000000000000000000000000000000000000000000000000000000000000000000000000000000000000000000000000000000000000000000000000000000000000000000000000000000000000000000000000000000000000000000000000000
#025360:00000000000000000000000000000014
#026320:00000053000000000000000000000000
#0263b0:00000000000000230000000000000000
#0253b1:00000000000000000000000000000013
#026361:00000053000000000000000000000000
#026371:00000000000000230000000000000000
#027361:00000013000000000000000000000000
#027321:0000002300000000
#027380:00130000
#0273b0:0000002300000000
#027360:00000000000000000000000000000013
#028320:0023000000000000
#0283b1:0013000000000000
#028371:00230000
#028371:00000000000000130000000000000000
#0283b1:0000000000230000
#028320:0000000000130000
#028360:00000023
#028360:00000000000000000000000000000013
#029320:0023000000000000
#029371:0013000000000000
#0293b1:00230000
#029360:00130000
#029320:0000002300000000
#029360:00000000000000000000000000000014
#0303b0:00000053000000000000000000000000
#030320:00000000000000230000000000000000
#029321:00000000000000000000000000000013
#030371:00000053000000000000000000000000
#030361:00000000000000230000000000000000
#031371:00000013000000000000000000000000
#0313b1:0000002300000000
#031350:00130000
#031320:0000002300000000
#0313b0:00000000000000000000000000000013
#032370:0023000000000000
#032320:00000000000000130000000000000000
#032360:0000000000230000
#033360:00000000000000000000000000000014
#0343b0:00000053000000000000000000000000
#034320:00000000000000230000000000000000
#0333b1:00000000000000000000000000000013
#034321:00000053000000000000000000000000
#034371:00000000000000230000000000000000
#0353a1:1424000000000000
#035361:00000014002400000000000000000000
#035351:00000000000000000000000000000013
#036321:0053000000000000000000000000000000000000000000000000000000000000
#036351:0023000000000000
#036381:00000000000000130000230000000000
#0363b1:0000000000000000000000000000000000530000000000000000000000000000
#036351:00000000000000000000000000000013
#037321:0053000000000000000000000000000000000000000000000000000000000000
#037351:0023000000000000
#037361:00000000000000000000000000000014
#038321:00000053000000000000000000000000
#0383b1:00000000000000230000000000000000
#037320:00000000000000000000000000000013
#0383b0:00000053000000000000000000000000
#038360:00000000000000230000000000000000
#039320:1424000000000000
#039360:00000014002400000000000000000000
#039320:00000000000000000000000000000013
#040360:0053000000000000000000000000000000000000000000000000000000000000
#040320:0023000000000000
#0403b0:00000000000000130000230000000000
#040370:0000000000000000000000000000000000530000000000000000000000000000
#041350:00000000000000000000001300002300
#041320:00000000000000000000000000000013
#042320:0023000000000000
#042350:00000000000000130000230000000000
#042320:00000000000000000000000000000013
#043320:0023000000000000
#0433b0:00000000000000000000000000000013
#0443b0:0023000000000000
#044380:00000000000000130000230000000000
#0443b0:00000000000000000000000000000013
#0453b0:0023000000000000
#046370:0000000000000013
#0473b0:23
#047361:13
#047321:0023000000000000
#047361:00000000000000000000000000000013
#048321:00000023000000000000000000000000
#048371:00000000000000130000000000000000
#0483b1:0000000000230000
#048361:00000000000000000000000000000013
#049321:0023000000000000
#049381:00000000000000160000260000000000
#049351:0000000000000000000000000000000000560000000000000000000000000000
