This file was generated by Ched 2.7.0.0.
#TITLE ""
#ARTIST ""
#DESIGNER ""
#DIFFICULTY 0
#PLAYLEVEL
#SONGID ""
#WAVE ""
#WAVEOFFSET 0
#JACKET ""
#REQUEST "ticks_per_beat 480"
#00002: 4
#BPM01: 130
#00008: 01
#TIL00: ""
#HISPEED 00
#MEASUREHS 00
#02118:1414
#02114:00140000
#02314:14
#02313:0014
#0231a:00140000
#02319:00000014
#02412:14
#02414:0014
#0051a:1414
#00514:00140000
#00612:1414
#00618:00000000140000000000000000000026
#02618:0014
#02614:00140000
#02612:00000014
#0261a:24
#02610:0000000000410000
#02718:14
#02714:00140000
#0271a:0014
#03014:0014
#03012:14
#03018:00140000
#0301a:00000014
#03114:14
#03118:00140000
#03112:0014
#0131a:1414
#01314:00140014
#01418:1414
#01412:00140000
#01410:00000000000000000000000000000041
#01512:1414
#01518:00140014
#0161a:00140000
#01614:1414
#01918:14
#01919:00340000
#02014:14
#02013:00340000
#03414:0014
#0341a:00140000
#03418:00000014
#03412:24
#03512:14
#0351a:00140000
#03514:0014
#03818:0014
#03812:00140000
#03814:00000014
#0381a:14
#0391a:14
#03912:00140000
#03918:0014
#03318:14141400
#03314:0014001400000000
#03310:00000000000000000000000000000041
#04114:14000000140000001400000000000024
#04118:0014001400000000
#0411a:00000000000000000000000000000024
#04110:00000000000000000000000000000041
#0461a:1414
#04613:00140000
#04712:1414
#04718:00140000
#0471a:00000000000000000000000000000024
#04714:00000000000000000000000000000024
#0321a:1414
#03212:00140014
#04012:1414
#0401a:00140014
#0171f:11
#0221a:2424
#02212:00240000
#04212:00000000000000240000000000000000
#0421a:00000000000000000000000000000024
#04218:00000000000000240000000000000000
#04214:00000000000000000000000000000024
#04312:00000000000000000000000000000024
#04318:00000000000000000000000000000024
#0441a:00000000000000240000000000000000
#04412:00000000000000000000000000000024
#04414:00000000000000240000000000000000
#04418:00000000000000000000000000000024
#00712:00000000000000260000000000000000
#00718:00000000000000000000000000000026
#00812:00000000000000260000000000000000
#00810:00000000000000000000000000000041
#04812:00000000000000240000000000000000
#0481a:00000000000000000000000000000024
#04818:00000000000000240000000000000000
#04814:00000000000000000000000000000024
#04912:00000000000000240000000000000000
#04918:00000000000000240000000000000000
#0251f:00000000000000000000000000000021
#00210:00000000000000000000000000000041
#02454:0024
#02452:54
#02552:14
#01958:54
#02054:54
#02854:0014
#0295a:0014
#03658:0014
#03752:0014
#04952:0000000000140000
#04958:0000000000140000
#000390:00000000000000000000000000000014
#001390:00000000000000340000000000000034
#002390:00000000000000240000000000000000
#002330:00000000000000000000000000000014
#003330:00000000000000340000000000000034
#004330:00000000000000240000000000000000
#008380:00000000000000000000000000000014
#0093a0:00000000000000340000000000000000
#009380:00000000000000000000000000000034
#0103a0:00000000000000240000000000000000
#010340:00000000000000000000000000000014
#011320:00000000000000340000000000000000
#011340:00000000000000000000000000000034
#012320:00000000000000240000000000000000
#017380:14
#017390:00340000
#0173a0:0024
#018340:14
#018330:00340000
#018320:0024
#019380:14
#019390:00340000
#0193a0:0024
#020340:14
#020330:00340000
#020320:0024
#024320:14
#024340:0054
#025320:24
#028320:14
#028340:0024
#029380:14
#0293a0:0024
#0363a0:14
#036380:0024
#037340:14
#037320:0024
#049320:00000000000000140000240000000000
#049381:00000000000000140000240000000000
