This file was generated by Ched 2.7.0.0.
#TITLE ""
#ARTIST ""
#DESIGNER ""
#DIFFICULTY 0
#PLAYLEVEL
#SONGID ""
#WAVE ""
#WAVEOFFSET 0
#JACKET ""
#REQUEST "ticks_per_beat 480"
#00002: 4
#BPM01: 200
#00008: 01
#TIL00: ""
#HISPEED 00
#MEASUREHS 00
#0041a:14
#00514:14
#0061a:14
#00714:14
#00818:14
#00912:14
#01018:14
#01112:14
#02612:14
#02512:14
#02510:41
#02818:14
#02718:14
#03014:14
#02914:14
#0321a:14
#0311a:14
#03312:14
#03418:14
#03514:14
#0361a:14
#03712:14
#03818:14
#03914:14
#0401a:14
#04112:14
#04118:00000014
#04110:41
#04213:0014
#04319:00140000
#04414:14
#0441a:00000014
#04513:0014
#04619:00140000
#0551a:14
#05510:41
#05614:14
#05718:14
#05812:14
#0591a:14
#06014:14
#06118:14
#06212:14
#0821a:00140000
#08314:00140000
#08418:00140000
#08712:00000016
#08718:00260000
#0871f:00210000
#08818:00160000
#08812:00000016
#08810:00410000
#08918:00160000
#08912:00000016
#09118:00000016
#09112:00260000
#09212:00160000
#09218:00000016
#09312:00160000
#09318:00000016
#09518:00260016
#09612:00160016
#09718:00160016
#09812:00160000
#09818:00000016
#09912:00260016
#10018:00160016
#10112:00160016
#10218:00160000
#10212:00000016
#11112:00000016
#11118:00260000
#11218:00160000
#11212:00000016
#11312:00000016
#11318:00260000
#11418:00160000
#11412:00000016
#11512:00000016
#11518:00260000
#11612:00000016
#11618:00260000
#12213:00140000
#12319:00140000
#12413:00140000
#12519:00140000
#0781f:0011
#11718:00260000
#11712:00000026
#11818:00260000
#11812:00000026
#11918:00260000
#11912:00000026
#12018:00260000
#12012:00000026
#12118:00260000
#0231a:0034343434343434
#0711a:00343434
#07110:41
#07312:00343434
#10310:00410000
#0123a0:14
#013380:24
#014320:14
#015340:24
#016380:14
#0173a0:24
#018340:14
#019320:24
#0203a0:14000034
#020380:0000003400000000
#021380:0034000000000034
#0213a0:0034
#0223a0:00340000
#022380:0000000000340000
#0233a0:3434343434343434
#024360:24
#047320:14
#047340:00000024
#0483a0:0014
#049380:00240000
#050320:14
#050340:00000024
#0513a0:0014
#052380:00240000
#053320:14
#054340:24
#0633a0:14
#064380:24
#065320:14
#066340:24
#067380:14
#0683a0:24
#069340:14
#070320:24
#0713a0:14343434
#072380:24
#073320:14343434
#074340:24
#075380:14
#0763a0:24
#076340:00000014
#077320:00000024
#078380:0014
#0793a0:0024
#080340:00140000
#081320:00240000
#085320:00140000
#086320:00240000
#090380:00160026
#094320:00160026
#103380:00160000
#104360:00260000
#105320:00160000
#106340:00260000
#107380:00160000
#108360:00260000
#109320:00160000
#110340:00260000
#126330:00140000
#131330:00240000
