This file was generated by Ched 2.7.0.0.
#TITLE "EXPERT"
#ARTIST ""
#DESIGNER ""
#DIFFICULTY 0
#PLAYLEVEL
#SONGID ""
#WAVE ""
#WAVEOFFSET 0
#JACKET ""
#REQUEST "ticks_per_beat 480"
#00002: 4
#BPM01: 200
#00008: 01
#TIL00: ""
#HISPEED 00
#MEASUREHS 00
#0121b:13
#01218:0013
#01315:13
#01312:0013
#01418:13
#01415:13
#0141b:0013
#01412:0013
#01515:13000016
#01518:13
#00014:0000000000120000
#00018:00000000000000000012000000000000
#0011a:0000001200000000
#00116:00000000000000120000000000000000
#0011c:0012
#00417:0013
#0041b:23
#0051b:13
#00517:0000001300000000
#00716:1313
#00714:00000013
#00612:0013
#00614:00000013
#0081b:0013
#00917:13
#00919:0013
#0091b:0000000000000013
#01014:0013
#01016:00000013
#0111b:13131300
#01115:00130000000013000000130000000000
#01118:0013000000001300
#01112:0000130000000013
#02016:0014140014140014
#0201a:0000001400000000
#02012:00000014
#02116:1400141400140000
#0211a:0014000014000014
#02112:00001414
#02216:1400001400001400
#02212:0014000014000014
#0221a:0000140000140014
#02315:0013000013000000
#02312:1300001300000013
#02318:0000130000130000
#0231b:0000001300001300
#02414:00140014001400140000000000000000
#02418:1414141414000000
#02412:00000024
#0241a:00000024
#02612:00130000
#02616:0013
#0261b:0013
#02614:0000001300000000
#0291b:1313
#02919:00000000000000000000001300000000
#02912:0000140000000014
#02917:0000000000000013
#02916:14
#02914:00000000000000000000001400000000
#03012:14141400
#0301b:13000013
#03115:00000000000013000000000000000013
#03118:00000000000000130000000000001300
#03112:00001313
#0311b:13
#0321b:13131300
#03215:0000001300000000
#03218:00000000000000130000000013000000
#03212:00001313
#04119:00130000
#0411b:13
#04117:0013
#04110:41
#04215:13
#04212:001300000000
#0431b:000000000013000000000000
#04315:000013
#04318:00130000
#04312:000000000000000000000013
#0451b:130013130000130000000000
#04512:0013000000001300
#04517:00000000000000000000000000130000
#0461b:00131313
#04618:0000001300000013
#04612:13131313
#04615:0013000000130000
#0471a:14
#04718:000000130000000000000013
#0471b:00001313
#04715:001300130000
#04712:13000014
#04818:00130013
#0481a:0014
#04815:130000000000000013000013
#04812:00131300
#0491b:13000013
#04912:00140013
#04918:001300000000
#04915:000000000000000000000013
#05112:0013
#05118:1313
#0511b:00130013
#05115:00000013
#05212:1416
#0521a:00140000
#05218:13000016
#05215:00130000
#05219:0013
#05214:00000013
#05315:16161616161616161616161616161616
#05317:0016000000160000001600000016000000160000001600000016000000160000
#05313:0000001600000016000000160000001600000016000000160000001600000016
#05712:13
#05717:0013
#0571b:23
#05618:00000013
#05615:0000000000000013
#05616:13
#0561b:0023
#06415:00000013
#0641b:13
#06418:0000000000000013
#06412:0013
#0651b:13
#06516:13
#06517:0013
#06718:13130000
#06715:00001313
#06316:0013
#06317:13
#06312:13
#06912:1515
#06916:0014001400140014
#06919:00150015
#07116:001300000000001300000000
#07117:000013000013
#0711b:231300231300
#07112:000000230013000000230013
#07110:41
#0761b:13231313
#07616:0014001400000000
#07612:23132300
#07715:0000000000000013
#07712:00000013
#07818:0013000000000000
#07815:0000001300001300
#0781b:13131300
#07817:000000000000001300001300
#07819:000013
#07813:000000000000000000000013
#07812:13130000
#0781f:0011
#0791a:13
#07918:001300000000
#07914:000000130000000000000013
#07916:001300001300001300000000
#07919:000013
#07912:000000000013000000230000
#07917:000000000013
#0791b:0023
#08012:000000131300000013000000
#08019:001300000000
#0801b:230000000013000000131300
#08016:001300000000000000000000
#08015:000000000000130000000013
#08018:000000000000001300000000
#08118:130013130013
#0811b:001300001300
#08115:000000130000001300000013
#08112:001300000013000000130000
#0821b:13130013
#08218:001300000000
#08212:001300000000000000000013
#08215:00130000
#08216:000000000000000000000014
#08314:001300000000000000000000
#08316:00130000
#08318:001400000000000000000000
#08317:00000013
#08718:0000131300001300
#0871b:0000000013130013
#08715:00000000000000000013001300000013
#08712:00000000001300130000000000130000
#0871f:00210000
#08818:1300000013130013
#08812:00130000001300130000000000000013
#08815:00000013000000000013001300130000
#0881b:0013131300001300
#08810:00410000
#0891b:1300000013130013
#08915:00130000001300130000000000130000
#08918:0013131300001300
#08912:00000013000000000013001300000013
#09018:2300231323130000
#09012:00000013000000000013001300130013
#09015:00130000001300130000000000000000
#0901b:0013000000002313
#10215:1300131313130000
#10218:00130000001300130013001300260026
#10212:0013000000002626
#1021b:00000013000000000000000000000000
#1041b:00130000
#10415:13
#10418:0013000000000000
#10412:00131300
#10417:0013
#10416:00000013
#1051b:13130000
#10512:13001313
#10517:0013
#10618:13
#10615:0013000000000000
#10612:00130000
#1061b:00131300
#10616:0013
#10617:00000013
#10918:00160000
#10912:00000016
#11118:00130013
#11115:000013000013
#1111b:000000000013000000000013
#11112:0013
#11212:130013000013
#11218:00130013
#1121b:000000000013000000000013
#11215:0013
#11315:130000000013000000000013
#11312:00130013
#11318:000013000013
#1131b:0013
#1141b:130013000013
#11412:00130013
#11415:000000000013000000000013
#11418:0013
#11518:130013000013
#11512:000000130013000000130013
#1151b:000000131300
#11515:000000000000001300000000
#1161b:131300131313
#11615:001300130013000000000000
#11618:001300
#11612:000000000000001300130013
#11718:1300001300131300
#11715:000000001300000000000000000000130000000000130000000000000000000000130000000000000000000000130000
#11712:000000000000000013000000000000000000000000000000000000130000000000000000000000130000000000000000
#1171b:0000130013000013
#11818:1300131300130013
#11815:00130000001300000013001300000013
#1181b:0013000013001300
#11812:00000013000000130000000000130000
#11918:1300130013130013
#11912:00130000001300000013000000130000
#1191b:0013001300001300
#11915:00000013000000130000001300000013
#1201b:13
#12015:00130000161616160000000000000000
#12018:0013000000000000
#12012:00000013000000000000000000000000
#12014:00000000000000001818181800000000
#12013:0000000000000000000000001a1a1a1a
#12113:1a
#12112:001c1c1c2c0000000000000000000000
#12212:00120000
#1231c:00120000
#12414:00120000
#01612:13
#01615:0013
#01718:13
#0171b:0013
#01815:13
#01818:13
#01812:0013
#0181b:0013
#01918:13000013
#01915:13000013
#01912:0013
#0191b:0013
#0251b:0000001300000013
#02512:0000001300000000
#02515:23
#02518:23
#02510:41
#03312:16001313
#0331b:0013131300000000
#03317:0000000013131300
#03316:00000013000000000000000000000000
#03415:00001300000013000000000000130013
#03418:0000130013130000
#0341b:0000001300001313
#03412:13000000000000000013001300000000
#03518:16
#0351b:00001313
#03512:0013131300000000
#03516:0000000013131300
#03517:00000013000000000000000000000000
#04416:00000013
#0441b:13
#04417:0000001300000000
#04412:00131300
#05015:00130013
#05018:13
#05012:0013
#0501b:00000013
#05815:00000013
#05818:0000000000000013
#05817:13
#05812:0023
#06016:13
#06015:0000000000000013
#06018:00230013
#0601b:0023
#05916:0013
#0591b:13
#05912:23
#0551b:13
#05516:0013
#05512:23
#05510:41
#06112:13
#06117:0013
#0611b:23
#07215:001300230000000000000000
#07218:231300
#0721b:001300131300
#07217:000000000013
#07212:000000000013000000130013
#07216:000000000000001300000000
#08416:00130000
#08417:00000013
#08518:00130013
#0851b:0013
#08515:00130013
#08512:0013
#0861b:13000023
#08618:00130000
#08612:13000023
#08615:00130000
#09115:00130013000000000013001300000013
#0911b:2313000013130013
#09118:0000231300001300
#09112:00000000001300130000000000130000
#09218:1300000013130013
#09212:00130000001300130000000000000013
#09215:00000013000000000013001300130000
#0921b:0013131300001300
#0931b:1300000013130013
#09315:00130000001300130000000000130000
#09318:0013131300001300
#09312:00000013000000000013001300000013
#09418:1300131300000000
#0941b:0013000013130000
#09412:00000013000000000013001300001300
#09415:00130000001300130000000000000000
#09512:1313000013130013
#09515:0000131300001300
#09518:00000000000000000013001300000013
#0951b:00000000001300130000000000130000
#09615:1300000013130013
#0961b:00130000001300130000000000000013
#09618:00000013000000000013001300130000
#09612:0013131300001300
#09712:1300000013130013
#09718:00130000001300130000000000130000
#09715:0013131300001300
#0971b:00000013000000000013001300000013
#09815:2300231323130000
#0981b:00000013000000000013001300130013
#09818:00130000001300130000000000000000
#09812:0013000000002313
#09918:00130013000000000013001300000013
#09912:2313000013130013
#09915:0000231300001300
#0991b:00000000001300130000000000130000
#10015:1300000013130013
#1001b:00130000001300130000000000000013
#10018:00000013000000000013001300130000
#10012:0013131300001300
#10112:1300000013130013
#10118:00130000001300130000000000130000
#10115:0013131300001300
#1011b:00000013000000000013001300000013
#10712:13130000
#1071b:13001313
#10716:0013
#10819:13
#10814:13
#10812:00140000
#05415:16161616161616160000000000000000
#05417:0016000000160000001600000016000000000000000000000000000000000000
#05413:0000001600000016000000160000001600000000000000000000000000000000
#06217:13
#06218:00000013
#06215:0000000000000013
#06212:0023
#06612:13
#06615:0000000000000013
#06618:00000013
#0661b:0013
#06818:14140000
#06814:00001414
#07316:241400241400241400241400
#0731b:001300001300
#07312:000000000013000000000013
#07416:001400001400001414001414
#0741b:231300130000
#07412:000000230013000000130000
#10318:00260026000000001600000000000000
#10312:2626160000000000
#10310:00410000
#11018:00261600
#11012:00160026
#03618:00001300000013000000000000130013
#03615:0000130013130000
#03612:0000001300001313
#0361b:13000000000000000013001300000000
#0281b:00130000
#02817:0013
#02812:0013
#02819:0000001300000000
#02712:2300000000000013
#0271b:23
#0371a:0000140000000014
#03712:1323
#03716:1400000000000023
#03718:00003400000034000000001400000000
#03714:00000000000000000000002300000000
#03717:00340000000000340000000000000000
#03719:00000034003400000000000000000000
#0381a:14141400
#03812:13000013
#03816:00330034
#03817:00000000000000000000003400000000
#03818:0000000000340000
#03819:00000000000000000034000000000000
#03813:00330000000000000000000000000000
#03814:0033000000000000
#03815:00000033000000000000000000000000
#03918:00000000000013000000000000000013
#03915:00000000000000130000000000001300
#0391b:00131313
#03912:13130000
#04012:13131300
#04018:0000001300001300
#04015:00000000000000130000000013000000
#0401b:0013
#07512:13
#00217:00000022
#07015:26
#0125b:63
#01258:0023
#01355:63
#01352:0023
#01458:63
#01455:63
#0145b:0023
#01452:0023
#0205a:1400001400000000
#02052:14000014
#0215a:0014000000000000
#02656:0053
#0265b:0053
#03152:0013
#0315b:13
#0325b:13130000
#03252:00001313
#0475a:14
#04752:00000014
#0485a:0014
#04952:00140000
#05152:0013
#0515b:00000013
#05252:1416
#0525a:00140000
#05258:00000016
#05355:66666666666666666666666666666666
#05357:0026000000260000002600000026000000260000002600000026000000260000
#05353:0000002600000026000000260000002600000026000000260000002600000026
#05752:53
#05757:0023
#0655b:13
#06556:53
#06557:0063
#0645b:53
#06452:13
#06758:13
#06755:0013
#06356:0053
#06357:53
#06352:13
#06952:1515
#06959:00150015
#08255:00630000
#08356:00230000
#08357:00000023
#08352:0033
#0835a:0014
#1045b:00630000
#10457:0023
#10456:00000063
#10958:00560000
#10952:00000026
#11152:0013
#11252:13
#11255:0013
#11355:13
#1135b:0013
#1145b:13
#11458:0013
#11558:13
#01555:53
#01558:53
#01652:53
#01655:0023
#01758:53
#0175b:0023
#01855:53
#01858:53
#01852:0023
#0185b:0023
#01958:63000023
#01955:63000023
#01952:0053
#0195b:0053
#0305b:53
#03052:0054
#03352:16001313
#0415b:13
#03558:16
#0355b:00001313
#04456:00000053
#0445b:53
#04457:0000002300000000
#04552:0023000000000000
#0455b:0053
#04557:00000000000000000000000000230000
#05058:63
#05055:00000063
#05857:53
#05852:33
#06056:53
#0605b:43
#05956:0023
#0595b:53
#0555b:63
#05556:0023
#06152:63
#06157:0023
#08456:00230000
#08457:00000023
#0845b:43
#08452:1433
#0845a:0014
#08558:00530053
#0855b:4323
#08555:00630063
#08552:1423
#0865b:23000013
#08658:00530000
#08652:23000013
#08655:00630000
#10552:23
#1055b:00630000
#10557:0023
#10652:00530000
#10656:0023
#10657:00000053
#1075b:23
#10752:00530000
#10756:0023
#05455:66666666666666660000000000000000
#05457:0026000000260000002600000026000000000000000000000000000000000000
#05453:0000002600000026000000260000002600000000000000000000000000000000
#06257:63
#06252:33
#05656:63
#0565b:43
#06652:63
#0665b:13
#06858:14
#06854:0014
#10358:0026
#10352:00560036
#11058:00462600
#11052:00660036
#02857:0063
#02852:0063
#02956:54
#02952:00240000
#0395b:0013
#03952:13
#04052:13130000
#0405b:0013
#04058:00000013
#03852:63
#0385a:0064
#03752:13
#03756:64
#0375a:00240000
#04652:00130013
#0465b:0013
#02552:0000002300000000
#0255b:0000002300000000
#02555:6343
#02558:6333
#07652:1313
#0765b:00130000
#12152:001c0000
#07055:0016
#0275b:0043
#02752:0033
#0795b:0013
#07952:00000013
#0805b:13
#004320:13
#006320:23
#0063b1:13
#0083b1:23
#008320:13
#010320:23
#0103b1:13000023
#0123b1:13
#012381:0053
#0133b1:23
#013350:13
#013320:0053
#014350:33
#014320:0053
#015350:33
#015320:0023
#014381:13
#0143b1:0053
#015381:33
#0153b1:0023
#016321:13
#016351:0053
#017321:23
#017380:13
#0173b0:0053
#018380:33
#0183b0:0053
#019380:33000053
#0193b0:0033
#0203a0:24
#018351:13
#018321:0053
#019351:33000053
#019321:0033
#020321:24
#025381:1323
#0253b1:0053005300000000
#025350:1323
#025320:0053005300000000
#025360:0000000000000013
#026320:0023000000000000
#026371:0013000000000000
#0263b1:0000002300000000
#0263b1:0013
#026371:00000023
#026360:0013
#026320:00000023
#0273b0:1323
#027380:00330000
#027321:1323
#027351:00330000
#027371:0000000000000013
#0283b1:0023000000000000
#028360:0013000000000000
#028320:0000002300000000
#028320:0013
#028360:00000023
#028371:0013
#0283b1:00000023
#029361:1424
#029321:00540000
#0303b1:13
#030371:0023
#030320:0014
#031360:24
#0313b0:00001323
#032320:13230000
#033370:0000000000000013
#0343b0:0023000000000000
#035360:0000000000000013
#036320:0023000000000000
#037360:1424
#037370:00340000000000340000000000000000
#037380:0034003400000000
#037390:00000034003400000000000000000000
#0373a0:00340000
#038320:13
#038330:00330000000000000000000000000000
#038340:0033000000000000
#038350:00000033000000000000000000000000
#038360:00332300
#0383a1:0014
#038391:00000000000000000034000000000000
#038381:0000000000340000
#038371:00000000000000000000003400000000
#038361:00000034
#039361:24
#039321:0013
#039331:00000000000000000033000000000000
#039341:0000000000330000
#039351:00000000000000000000003300000000
#039361:00000023
#0403b1:13
#0403a1:00330000000000000000000000000000
#040391:0033000000000000
#040381:00000033000000000000000000000000
#040371:00230000
#041321:13000023
#0413b0:00000013
#0423b0:00230000
#042321:00130023
#0423b0:0013
#0433b0:23
#043321:1323
#0433b0:000000132300
#043380:000000000000000000130023
#0443b0:13000023
#044370:0000005300000000
#044361:00000013
#045321:0053000000000000
#045361:0023
#0453b0:0013
#045370:00000000000000000000000000530000
#0463b0:0023000000000000
#050380:13
#0503b0:0023
#050350:00000013
#051320:00230000
#053350:16363636363636363636363636363636
#053370:0036000000360000003600000036000000360000003600000036000000360000
#053330:0000003600000036000000360000003600000036000000360000003600000036
#054350:36363636363636362600000000000000
#054370:0036000000360000003600000036000000000000000000000000000000000000
#054330:0000003600000036000000360000003600000000000000000000000000000000
#0553b0:13
#055360:0053
#0563b0:23
#056361:13
#056321:0023
#057321:13
#057371:0053
#058321:23
#058370:13
#0583b0:0023
#0593b0:13
#059360:0053
#0603b0:23
#060361:13
#060321:0023
#061321:13
#061371:0053
#062321:23
#062370:13
#0623b0:0023
#063370:13
#0633b0:0023
#063361:0013
#064321:23
#0643b0:13
#064370:0023
#065360:13
#065320:0023
#065371:0013
#0663b1:23
#066320:13
#066360:0023
#067320:13230000
#0673b0:00001323
#068320:14240000
#0683a0:00001424
#070350:16363636363636362600000000000000
#075370:13
#0753b0:00230000
#075361:00130000
#075321:0023
#075370:0013
#0753b0:00000023
#075361:00000013
#076321:23
#076321:00000013
#077361:23
#0773b0:13
#077370:00230000
#077321:00130000
#077361:0023
#0773b0:0013
#077370:00000023
#082350:00130000
#082320:00000023
#083360:00130000
#083320:0023
#0833a1:00142400
#083371:00000013
#0843b1:23
#083320:00000014
#084320:24
#084360:00130000
#084320:0023
#0843a1:00142400
#084371:00000013
#0853b1:23
#084320:00000014
#085320:24
#085380:00130033
#0853b0:0053
#0863b0:53000023
#086380:00330000
#085351:00130033
#085321:0053
#086321:53000023
#086351:00330000
#0943a1:00000014
#094391:00000000000000000000000000340000
#094381:0000000000000034
#094371:00000000000000000000000000000034
#095361:34
#095371:00340000000000000000000000000000
#095381:0034000000000000
#095391:00000034000000000000000000000000
#0953a1:00240000
#103321:00160026
#103381:0056
#1043b1:00130023
#104371:0053
#104360:00000013
#105320:53
#105360:00230000
#1053b1:00130023
#105371:0053
#106321:00130023
#106361:0053
#106370:00000013
#1073b0:53
#107370:00230000
#107321:00130023
#107361:0053
#1083a1:00140000
#108361:0024
#108320:0014
#108360:00000024
#1083a1:00000014
#1093a1:24
#109360:14
#109320:00240000
#109381:00160000
#109321:00000056
#110381:00260000
#110320:00160026
#110380:0056
#1253a0:00120000
#1263a0:00320000
#126390:00000000003200000000000000000000
#126380:0000003200000000
#126370:00000000000000320000000000000000
#1313c0:00220000
#126351:00130000
#126341:00000000003300000000000000000000
#126331:0000003300000000
#126321:00000000000000230000000000000000
#127321:000000000013000000000000
#127331:0033
#127341:000000000000002300000000
