This file was generated by Ched 2.7.0.0.
#TITLE ""
#ARTIST ""
#DESIGNER ""
#DIFFICULTY 0
#PLAYLEVEL
#SONGID ""
#WAVE ""
#WAVEOFFSET 0
#JACKET ""
#REQUEST "ticks_per_beat 480"
#00002: 4
#BPM01: 200
#00008: 01
#TIL00: ""
#HISPEED 00
#MEASUREHS 00
#0121b:13
#01219:0013
#0131b:13
#01318:0013
#0151b:00000013
#01512:0013
#00016:00000000000000000014000000000000
#00116:0000001400000000
#0111b:13130000
#01115:0013001300000000
#01112:0000000000130013
#01118:00001313
#02012:0000001500000000
#02019:00000015
#02112:0015000000130013
#0211b:00001313
#0221b:13
#02212:0013000000000000
#02218:00131313
#02215:0000001300130013
#03114:00140014
#03118:1414
#0321a:1414
#03212:00140014
#06415:00000013
#06418:1300000000000013
#06412:13
#06312:13
#06318:13
#07115:1313
#07118:00130013
#0711b:2323
#07112:00230023
#07110:41
#0811b:130000130013
#08118:00130000
#08112:00130000
#08115:000000000000130000130013
#08015:000000000000000000130013
#08012:000000130013001300000000
#08018:000013130000
#0801b:230000001313
#08218:000000000000000000000014
#0821b:131300000000
#08215:001300000000000000000000
#08314:001400000000000000000000
#10218:0000001400140026
#10214:00141400
#1021b:0013000000000000
#10215:13
#10212:00000026
#1041b:13
#10418:0013000000001300
#10415:00130000
#10918:13160000
#10915:00000016
#10912:13
#1131b:000000130013000000000000
#11315:000013130000
#11318:000000000013
#11312:000000000000000000130013
#11418:130000000013
#11415:000013130000
#1141b:000000130013000000000000
#11412:000000000000000000130013
#11518:130000000000000000130013
#1151b:000000130013001300000000
#11512:000013131300
#11515:000000000013
#11615:130000130013001300000000
#11618:000013131300
#11612:000000000000000000130013
#1161b:000000000013
#12212:00130000
#1231b:00130000
#12415:00130000
#0141b:13
#01417:0013
#03012:13
#03015:0033
#03318:1313
#0331b:00000013
#03315:00130000
#03418:0013000000000000
#03412:00000000130000000000003300000000
#0341b:0000001300000000
#03415:13
#03414:00000000000000000033000000000000
#03413:0000000000330000
#0581b:0000000000000013
#05816:00000013
#05516:0013
#05512:13
#05510:41
#05615:0000000000000013
#0561b:00000013
#0571b:13
#05717:0013
#07215:130000000000001300130013
#07218:00130000
#0721b:230000131313
#07212:00230000
#08519:00150000
#08515:00000015
#08619:00150000
#08615:00000026
#09212:0013000000130000
#09218:13
#09215:0000001300000013
#0921b:00231313
#09112:2300001300130013
#09118:2313
#0911b:00230013
#06218:00000013
#06215:0000000000000013
#06615:1300000000000013
#06618:00000013
#0661b:13
#10315:0016
#10312:26160000
#10318:0026000000000000
#10310:00410000
#0291b:13
#02918:0033
#04912:00000013
#0491b:00130000
#01612:13
#01614:0013
#01712:13
#01715:0013
#01812:13
#01816:0013
#0231b:13
#02318:00130000
#02315:0013
#02312:00000013
#02618:00130000
#02612:13
#02815:00130000
#0281b:13
#03515:1313
#03512:00000013
#03518:00130000
#03615:0013000000000000
#0361b:00000000130000000000003300000000
#03612:0000001300000000
#03618:13
#03619:00000000000000000033000000000000
#0361a:0000000000330000
#03918:00140014
#03914:1414
#04012:1414
#0401a:00140014
#0381b:13
#03819:00330000
#03818:0033
#03712:13
#03714:00330000
#03715:0033
#04212:0013
#04215:00000013
#0431b:00130000
#04318:1313
#04315:00000013
#0461b:00130000
#04615:00130000
#04614:0013
#0461a:0013
#04613:00000013
#04619:00000013
#05118:00000013
#0511b:0013
#05113:33
#05215:13
#0521a:0013
#05214:00000013
#05212:00130000
#0521b:00000013
#05219:00130000
#05213:0013
#05317:00160016001600160016001600160016
#05318:0016001600160016
#05316:16161616
#0651b:13
#06515:13
#06916:0016
#06912:26
#0731b:00130013
#07312:0013
#07318:2323
#07315:00230023
#07412:130000131313
#0741b:00130000
#07418:230000000000001300130013
#07415:00230000
#0761a:00240014
#07612:2424
#07812:000000130000000000000013
#07815:130000000000001300130000
#07818:00130000
#0781b:130000131313
#0781f:0011
#07912:001300130000000000230000
#07918:131300000000
#0791b:0023
#08715:0000001300130000
#0871b:00231300
#08718:00000013
#08712:0000000000000013
#0871f:00210000
#08818:13000013
#08812:0013000000000013
#08815:0000001300130000
#0881b:00231300
#08810:00410000
#08918:1313
#08912:0013000000130000
#08915:0000001300000013
#0891b:00230013
#09018:1323
#09012:0013000023000000
#0901b:00230023
#09015:00230023
#11818:0000001300000013
#11815:00130013
#1181b:0000000000130000
#1181a:1414000000000000
#11812:0013
#11715:0000001300000013
#1171b:1313
#11712:0000000000130000
#11718:00130013
#09312:0013000000130013
#0931b:13001313
#09318:00130000
#09315:0000001300000000
#1001b:0013000000130000
#10015:13
#10018:0000001300000013
#10012:00231313
#0991b:2300001300130013
#09915:2313
#09912:00230013
#09518:0000001300130000
#09512:00231300
#09515:00000013
#0951b:0000000000000013
#0951a:1414000000000000
#09615:13000013
#0961b:0013000000000013
#09618:0000001300130000
#09612:00231300
#09715:1313
#0971b:0013000000130000
#09718:0000001300000013
#09712:00230013
#09815:1323
#0981b:0013000023000000
#09812:00230023
#09818:00230023
#10112:13230013
#1011b:0013000000130000
#10115:0013
#10118:0000001300000013
#1051b:00000013
#10515:00000013
#10612:13
#10615:0013000000001300
#10618:00130000
#10712:00000013
#10718:00000013
#10815:13000013
#1081b:13130013
#10812:00131300
#10818:0013
#11912:1414000000130013
#1191b:00131300
#11915:0000001300000000
#11918:00000013
#1201a:1414000000000000
#12012:00161616
#12018:0000001600160016
#12112:16260000
#12118:0016000000000000
#05417:00160016001600160000000000000000
#05418:0016001600000000
#05416:16160000
#05916:13
#06012:0000000000000013
#06017:00000013
#06117:13
#07012:16363636363636360000000000000000
#07015:0026
#09418:13001313
#09415:0013000000130013
#0941b:00130000
#09412:0000001300000000
#00216:00000024
#11018:00260000
#11012:00000026
#02518:26
#02510:41
#02712:26
#02415:00000026
#00619:00000033
#12719:0033
#05019:00330000
#04110:41
#0125b:63
#01259:0023
#0135b:53
#01358:0023
#02052:0000001500000000
#02059:15000015
#02152:0015000000000000
#03158:1414
#06352:53
#06358:53
#10958:00560000
#10955:00000026
#0145b:63
#01457:0023
#03052:53
#03252:00140014
#0325a:1414
#05556:0023
#05552:63
#0575b:53
#05757:0023
#08559:00550000
#08552:14
#08555:00000025
#08659:00550000
#08655:00000016
#10355:0026
#10352:00560036
#0295b:53
#11058:00460000
#11052:00000036
#07652:1414
#0765a:00140000
#02558:66
#0255a:0014
#12152:00160000
#05652:13
#0585b:13
#08358:0014
#08454:14
#0845a:0014
#01652:53
#01654:0023
#01752:63
#01755:0023
#01852:53
#01856:0023
#02752:5614
#03954:1414
#04052:1414
#0405a:00140014
#0385b:63
#03752:63
#05357:00660066006600660066006600660066
#05358:0026002600260026
#05356:26262626
#06452:53
#06458:53
#0655b:63
#06555:63
#0665b:63
#06655:63
#06952:56
#06956:0026
#07055:0016
#07052:56
#10458:00000053
#10455:00630000
#10655:00000063
#10658:00530000
#05457:00660066006600660000000000000000
#05458:0026002600000000
#05456:26260000
#05956:63
#06052:13
#06157:53
#0625b:13
#07952:00130013
#0795b:0013
#0815b:13
#0805b:13
#004350:13
#004320:0033
#005350:33
#005320:0000003300002300
#006380:13
#0063b0:0033
#006390:00000033
#007380:33
#0073b0:00003323
#008320:13
#008350:0033
#009320:33
#009350:0023
#010380:13
#0103b0:00003323
#0123b0:13
#012390:0053
#0133b0:33
#013380:0053
#0143b0:33
#014370:0053
#0153b0:23
#016320:13
#016340:0053
#017320:33
#017350:0053
#018320:33
#018360:0053
#019320:23
#019390:0000000015555555
#019380:00000000000000000055005500550055
#020390:25
#024350:16363636363636362600000000000000
#025380:16
#0253a0:0024
#0263b0:00001323
#026351:00001323
#027321:1624
#028321:00001323
#028380:00001323
#0293b0:13
#029380:00003323
#030320:13
#030350:00003323
#034350:0013
#034340:00000000000000000033000000000000
#034330:0000000000330000
#034320:00000000000000000000003323000000
#036380:0013
#036390:00000000000000000033000000000000
#0363a0:0000000000330000
#0363b0:00000000000000000000003323000000
#037320:13
#037340:00330000
#037350:00003323
#0383b0:13
#038390:00330000
#038380:00003323
#041320:13
#041350:0023
#041380:00000013
#0423b0:00230000
#044320:1323
#0443b0:00000013
#045380:00230000
#045350:0013
#046320:23
#047320:13
#047340:00330000
#047360:0023
#0473b0:00000013
#048390:33
#048370:00230000
#048320:0013
#048340:00000033
#049360:23
#050380:13
#050390:00330000
#0503b0:0023
#050350:00000013
#051330:33
#051320:00230000
#053360:16363636
#053370:00360036003600360036003600360036
#053380:0036003600360036
#054360:36362600
#054370:00360036003600360000000000000000
#054380:0036003600000000
#055320:13
#055360:0053
#056320:23
#0573b0:13
#057370:0053
#0583b0:23
#059360:13
#060320:23
#061370:13
#0623b0:23
#063380:13
#0633b0:0023
#063321:13
#063351:0023
#064381:13
#0643b1:0023
#064320:13
#064350:0023
#065350:13
#065320:0023
#0653b1:13
#065381:0023
#066351:13
#066321:0023
#0663b0:13
#066380:0023
#067320:13230000
#0673b0:00001323
#068320:13230000
#068381:13230000
#0683b1:00001323
#068350:00001323
#069320:16
#069360:0056
#070320:36363636363636360000000000000000
#070350:0026
#075350:13
#075320:00230000
#075380:0013
#0753b0:00000023
#077320:13
#077350:00230000
#0773b0:0013
#077380:00000023
#082350:00130000
#082320:00000023
#0833a0:00140000
#083380:0024
#083320:00000014
#084340:24
#084380:00140000
#0843a0:0024
#084340:00000014
#085320:24
#085390:00150000
#085350:00000055
#086390:00350000
#086350:00000026
#103320:00160026
#103350:0056
#104350:00130000
#104320:0023
#104380:00000013
#1053b0:23
#105320:00132300
#105381:00132300
#106381:00130000
#1063b1:0023
#106351:00000013
#107321:23
#1073b1:00132300
#107350:00132300
#109380:00160000
#109350:00000056
#110380:00260000
#1113a0:000000143434240000000000
#111340:000000000000000000143434
#112340:24
#112380:000000143434240000000000
#112320:000000000000000000143434
#113320:24
#1253b0:00130000
#1263b0:00330000
#1263a0:00000000003300000000000000000000
#126390:0000003300000000
#126380:00000000000000330000000000000000
#127380:000000000033000000000000
#127390:0033
#1273b0:000000000000003300000000
#1313b0:00230000
