This file was generated by Ched 2.7.0.0.
#TITLE ""
#ARTIST ""
#DESIGNER ""
#DIFFICULTY 0
#PLAYLEVEL
#SONGID ""
#WAVE ""
#WAVEOFFSET 0
#JACKET ""
#REQUEST "ticks_per_beat 480"
#00002: 4
#BPM01: 200
#00008: 01
#TIL00: ""
#HISPEED 00
#MEASUREHS 00
#00018:00000000000000000011000000000000
#00012:0000000000110000
#00117:0000001100000000
#0011a:00000000000000110000000000000000
#0011d:0011
#01116:1400001316000000
#01118:00140000160000000000000000000000
#0111a:0014000000000000
#01114:0000000000131600
#01112:0014000000000013
#02018:0016160000000016
#02012:1c00001c16161c00
#02112:161c001600001400
#02118:0000160000140000
#02114:0000000000140000
#02116:0000000014001414
#0211a:0000000014000014
#02318:1413
#0231b:00000000000013000013000000000000
#02315:00001300000000000000000000000013
#02317:00000000140000000000000000130000
#02316:0000000000130000
#02314:0000001400001300
#02312:1400130000000013
#02319:00000000000000000000001300000000
#0231a:0014000000000000
#02412:00160016001600161c00000026000000
#02418:1616161600002600
#02614:00130000
#02617:0012001200330000
#02612:00001200000000000000003300000000
#02619:00000000130000000033000000000000
#0261c:0000001200000000
#02616:00000000000000000000003300000000
#02615:00000000000000000033000000000000
#02613:0000000000330000
#0311b:0000001313000000
#03115:00000000000000160000000000000016
#03112:1300000013000013
#0321b:13131313
#03218:00001300000013000013001300000000
#03215:00000000130000130000130000000000
#03212:0013000013001300
#0411b:130000130013130000130000
#04112:0000001300000000
#04118:13
#04110:41
#04212:130013130000000000000000
#04215:0013000000000000
#0431b:000000130013000000000000
#04315:000000131300
#04312:000000000000000000130013
#0461a:0000000000130000
#04613:00130000
#04614:0013000000000000
#04618:1300000000000013
#04619:00000013
#04612:0000001300000000
#0471a:14
#04718:000013130000000013000000
#0471b:0013
#04715:000000000013130000000013
#04712:00000014
#04818:000013130000000013000000
#0481a:0014
#04815:130000000013000000130013
#04812:00130000
#0481b:00000013
#04918:13
#04912:130000140000000000130013
#04916:000014000000000000000013
#0491b:00000013
#0491a:00140000
#05112:0000130016161600
#0511b:00130000
#05115:000013000013000000000000
#05118:0000000016000016
#05615:0000000000001312
#05618:0000000000000013
#05612:00120012
#05617:12
#0561c:0022
#06916:0014001400140014
#06912:16161616
#06918:16161616
#0761a:1400240014000014
#07615:0016001600000000
#07612:24142400
#07616:00000014
#0771a:00000000000014001434000000001400
#07712:0014000000140014
#07716:14000000140000001400003424000000
#07718:0000000000340000
#07812:0014001400000000
#07818:00001616
#07816:240000140000001414001414
#0781a:0014001400000000
#0781f:0011
#07912:16160026
#07916:001414001414001414001414
#07918:0026
#08012:00120000
#08016:001414000012000000000000
#08014:001200
#08018:260000000000120000000012
#0801a:000000000000001414141400
#08114:001200000016001600000016
#08116:120016001616
#08118:00160016
#08112:001200160000
#08212:16130012
#08216:001600000000
#08214:001600000000000000000012
#08217:000000000000000000000013
#0821b:00130000
#08215:00000013
#08316:001200000000000000000000
#08319:001300000000000000000000
#0831b:00130000
#08718:00000000160016001613161316001600
#08712:00000000001300000000000000000013
#08715:00000000000000130000000000130000
#0871f:00210000
#08815:00001300000000000013001300000000
#08812:00130000160016001600160016001600
#08818:16000013000000130000000000130000
#0881b:00000000001300000000000000000013
#08810:00410000
#10212:000000001c001c13001c001c2c2c2c2c
#1021b:0013000013000000
#10215:00000000001600000000160000000000
#10216:00120000000000000000000000000000
#10218:00000012000000000000000000000000
#10219:13
#10416:14141414
#10412:14
#10414:0014000000000000
#1041a:00140014
#10418:0014000000000000
#10918:16160016
#10912:16141514
#10915:0000003500350035
#11118:000000161616160000000000
#11112:000000000000000000161616
#11212:160000000000000000131616
#11218:000000131616160000000000
#1121b:00130000
#11215:00000013
#11312:1616
#1131b:000000131313000000000000
#11318:000000000000000000001313
#11412:160000000000000000001313
#11415:000000001313000000000000
#11418:0016
#11518:160000000013001300260000
#1151b:001300
#11515:000000000000000013000013
#11512:130000260000260000001300
#11618:260013000013001300260000
#11615:001300000000000013000013
#1161b:001300
#11612:000000260000260000001300
#11718:261300000000
#11715:000000001300000000000000000000160000000000160000000000160000000000160000000000160000000000160000
#1171b:0000131313131313
#1181b:1313000000000000
#11815:00160016001600160016001600160016
#11812:0000131313131313
#12212:00120000
#12312:00120000
#12412:00120000
#0251c:0000000000000012
#02513:0000001200000000
#0251b:0000001200000000
#02512:0000000000000012
#02516:22
#02518:22
#02510:41
#03016:0013
#03014:00000013
#03019:00120000
#0301c:12
#03017:12
#0331b:1313001313001300
#03318:00000000130000000000001300000000
#03315:00000013000000000000130000000000
#03312:1600001313001300
#03415:00001300000013000013001300000000
#03418:00000000130000000000000016161616
#03412:1300130013130000
#0341b:0000001300000000
#05012:1313
#05018:000000000013000000000000
#0501b:000000000000130013130000
#05016:13
#05017:000000000000000013130000
#05818:00000013
#05815:0000000000000013
#0581c:00120012
#05819:0000000000000012
#05817:12
#05812:0022
#05518:00130000
#05512:2313
#05516:1212
#05510:41
#08918:00001300160016001613160016131600
#08915:00000013000000130000000000000013
#0891b:00130000000000000000001300000000
#08912:16000000001300000000000000000000
#09015:00161616260000000000000000161616
#09012:00000000001616162600000000000000
#09018:26000000000000000016161626000000
#09518:00000000000000130000000000001300
#09512:000015001c1c13001c1c00001c000000
#09515:00000000000000000000130000000013
#0951b:00000000000000000000001300130000
#09513:15
#09517:00130000000000000000000000000000
#09516:00000013000000000000000000000000
#0961b:00000013000013000000000000000000
#09612:130000001c1c00001c1c00131c130000
#09615:00130000000000130000000000001300
#09618:00001300000000000000130000000013
#09818:00000000001600000000001600160000
#09812:2c1c1c1c2c0000162c1600002c000016
#09816:0000001400140014
#09912:2c1600002c1400141c0000001c000000
#09916:00001400000014000014001400000000
#0991a:0000000000140000
#09918:00000016000000000000000000001300
#0991b:00000000000000000000000000000013
#09915:00000000000000000000000000130000
#10112:000000001c1300000000000000120000
#10118:00000000000012000000001300000000
#10114:00000000000000130000000000000012
#1011a:0012
#10116:00000000000000000013000000000000
#1011c:0000000000120000
#10115:12000013
#10117:00120000000000000000000000001300
#1011b:00000012000000000000000000000000
#10119:0012000000000000
#1051b:00130000
#10517:0013
#10512:1414
#1201a:00000000001400000000000000140000
#12016:00000000000000140000001400000014
#12012:130000002c002c002c142c002c002c00
#1201b:0013000000000000
#12015:00160016000000000000000000000000
#10318:00161600
#10312:2c2c2c2c160000001600000000000000
#10310:00410000
#11018:00261600
#11012:15160026
#11015:0035000000000000
#11013:00000000000000000000003600000000
#11016:00000000000036000036000000000000
#11014:00000000003600000000360000000000
#11017:00000000000000360000000000000000
#0291c:12000000000000000000001200000000
#02917:13000000120000000000001300001200
#02912:0000130000000013
#03918:00001300000013001600160016000013
#03915:00000000000000130000130000001300
#03912:0016160013000000
#0391b:13
#03919:00330033000000000000000000000000
#03914:00000000000000000033003300000000
#04012:1616160013001300
#04018:0013001316161600
#04015:00000000000000130000000000000000
#0401b:13
#04019:00330033000000000000000000000000
#03712:1613000023000023
#0371b:00130013001300130000002300000000
#03715:00000000130000000016160016160000
#03718:0000001300000000
#04418:130000000013130000000000
#0441b:13130000
#04415:000000000000000013130000
#04412:00000013
#00918:0000000000000013
#00912:1313001313001300
#00915:00000000000000000000000000000013
#00916:13
#0091b:0013
#0061b:1300131300131300
#00617:13000013
#00612:0013
#0071b:1313001313001300
#00712:13
#00717:0000001300000000
#00812:1300131300131300
#00816:13
#0081b:0013
#0101b:1300131300131300
#01017:00130000
#01012:1313
#0121c:0012120000000000
#01218:26000012000016000016001600001600
#01212:0000000016161600
#0131c:12
#01316:1218000000000000
#01318:00000000120000000013000013001600
#01312:0000121800130000
#01315:00000000000000001300001300000000
#0131b:0000000000130000
#01612:0016000016001600
#01618:26000013000016000000130000001600
#0161b:00000000130000000013001300000000
#01718:12000000140000000013001300001300
#01716:0000001200000000
#0171c:0012001200000000
#01715:00001313
#01712:1200120000130013
#01714:0014000000000000
#0171b:0000000000130000
#02218:1400001400001400
#02212:0014000014000014
#02214:1400001400001400
#02216:0014140014140014
#0221a:0000140000140000
#03512:1313001313001300
#03515:00000000130000000000001300000000
#03518:16000013000000000000130000000000
#0351b:0000001313001300
#0361b:1300130013130000
#03612:00000000000013000000000016161616
#03618:00001300000013000013001300000000
#03615:00130000
#05312:0000001800000018000000180000001800000018000000180000001800000018
#05314:18181818181818181818181818181818
#05316:0018000000180000001800000018000000180000001800000018000000180000
#05412:0000001800000018000000180000001800000000000000000000000000000000
#05414:18181818181818180000000000000000
#05416:0018000000180000001800000018000000000000000000000000000000000000
#05418:00000013
#0541b:0000000000130000
#05415:0000000000000013
#05218:1600001616000000
#05212:0016160000161600
#06015:0000000000001312
#06018:0000000000000013
#06012:00120012
#06017:12220000
#0601c:0022
#06312:13
#0631b:0013
#06316:13000013
#06317:00131300
#06215:0000000000000013
#06218:00000013
#0621c:00120012
#06219:0000000000000012
#06217:12
#06212:0022
#06412:13
#0641b:0013
#06419:0000000000000013
#06417:00131313
#06416:13
#06414:0000000000000013
#06516:1414
#06512:00121400
#0651c:00000012
#0651a:14
#06514:0000000000000014
#06518:0000000000000014
#07115:001300000000000013001313
#07112:000013001313001300000000
#07118:26262626
#07110:41
#07212:000013001313000000000012
#07215:001300000000000000001200
#0721c:0012
#07219:000000000000001200000000
#07216:000012
#07218:26260012
#0741b:000013001313000000000000
#07415:000000000000001200000000
#07412:26261200
#07418:001300000000000012000000
#07416:00000012
#0741c:000000000000000000000012
#07419:000000000012
#07516:00001400000014000000140000141414
#07512:14001414
#0751a:00140014
#09418:00130000000015000000000000000013
#09417:0015
#09414:00000000000000000013000000001500
#09416:00000000001300000000150000000000
#09413:00000000000000000000001300000000
#09415:00001300000000130000000015000000
#09419:00000000000000000000000000130000
#0941b:13
#09412:000000131c0000000000000000000000
#09112:00161616260000000013001300000000
#0911b:0000001300001313
#09115:26000000001600161600130000000013
#09118:00000000000000000000000000130000
#00512:1313001313001300
#00516:13
#0051b:0000001300000000
#00412:2300131300131300
#00416:13
#0041b:0013
#0841b:0013
#08412:00000013
#08512:1312
#08516:00120012
#08518:00120012
#0851c:0012
#08612:12000026
#08615:00130000
#0861c:12
#08618:00000000133435350000000026000000
#08614:00000000003400000000000000000000
#08613:00000000000035350000000000000000
#12116:00000014000000000000000000000000
#12112:2c142c002c0000000000000000000000
#09218:13001300000000000000130000000013
#09215:00130000001600161600000000130000
#0921b:00000013000000000013001300000000
#09212:0000131300001313
#10712:00130016
#10713:000000000000001a
#10718:00000016
#1071a:14
#09315:13001300001600161600130000000000
#09318:00130000000000000000000000130000
#09312:00000013000000000013001300000013
#0931b:0000131300001313
#09712:000000131c1c00001c1c00131c001c16
#0971b:1300001300000000
#09718:00130000000000130000000000160000
#09715:0013000000130000
#10019:12
#10017:00120000000000000000000000000000
#10013:00000012000000000000000000000000
#10015:0012000000000013
#1001a:00000000001400140000000000000000
#10016:00000000000014000014001400000000
#10012:000000001c0000001c0014001c000013
#10018:00000000000000000000000000130000
#02712:2300000000000012
#0271c:0000000000000012
#0271b:23330000
#04512:13
#04515:000013130000000000000000
#04518:000000000013130000000000
#0451b:00001313
#05715:00130000
#0571b:2313
#05718:1212
#05918:00130000
#05912:2313
#05916:1212
#06115:00130000
#0611b:2313
#06118:1212
#06614:0000000000000014
#06616:1414
#0661c:00120000
#06612:14000012
#0661a:0014
#06618:0000000000000014
#07318:001300000000000013001313
#0731b:000013001313001300000000
#07312:26262626
#01412:26001200120016000016001600001600
#01416:00000012000000000000000000000000
#01418:0000000016161600
#01512:1218000000130016
#01516:0000121800000000
#01518:12000000000000001300001300000000
#01515:00000000000000000013000013000000
#0151b:0000000000130000
#0151c:00120000
#12512:00120000
#06719:15151515
#06812:15151515
#10814:14000014
#10815:0016000000160000
#10816:00121200
#10813:000000000000001a
#10817:0000001200000000
#10818:14121214
#03812:0000000016160000
#03818:13001300000000000016001600000000
#03815:00130013000000000000000000000000
#10616:14141414
#1061a:14
#10618:0014000000000000
#10612:00140014
#10614:0014000000000000
#02819:00130000
#02817:00001200000012000000003300000000
#0281c:0012000000000000
#02814:00000000130000000033000000000000
#02812:0000001200000000
#02816:0000000000330000
#02818:00000000000000000033000000000000
#0281a:0000000000330000
#0281b:00000000000000000000003300000000
#11912:131c1c1c000013000000130013000000
#1191b:0000130013000013
#11915:00000000001600160016001600160016
#01912:00001c0012001c001c1c181c00001c18
#01916:12000018
#0191a:00000000000000000000000000140000
#01918:00120000
#0191c:12
#01818:0016000016001600
#01815:00000013000000000000130000000000
#01812:26000000130016000013001300001600
#00217:00000000000000000000000022220000
#07013:00280028000000002800000000000000
#07014:28000000000000280000000000000000
#07012:0028000000000000
#07015:0000282800000000
#07016:00000000002800000000000000000000
#01158:00460000
#01156:0046
#01154:00000046
#02052:1c00001c00001c00
#02152:001c000000000000
#0215a:0000000034000034
#02156:0000000034000034
#02357:00140000
#02352:14
#03152:5313
#0315b:1353
#0325b:13130000
#03252:00001313
#0475a:14
#04752:00000014
#0485a:0014
#04952:00140000
#0495a:00140000
#05152:0000000036265600
#05158:0000000066004626
#06952:00160016
#06958:1616
#0765a:14141400
#07652:14141400
#07858:00001616
#07856:14140000
#07952:16160036
#07958:0046
#08158:00160016
#08152:0016
#08252:16630000
#0825b:00530000
#10456:00640034
#1045a:00440024
#10958:00560056
#10952:0025
#11158:0016
#11252:16
#11258:0016
#11352:1616
#11452:16
#11458:0016
#11558:16000016
#11552:00161600
#1175b:00131313
#11758:16
#1185b:13
#11852:00131313
#03056:0053
#03057:52
#0335b:0013
#03352:16000013
#0415b:13000053
#04152:0000002300000000
#04158:53
#05052:63
#05056:63
#0505b:00000053
#05057:00000053
#05558:00630033
#05552:0053
#05556:6252
#1055b:00630000
#10557:0023
#10552:0024
#10358:00662646
#10352:00562636
#11058:00462600
#11052:25660036
#0295c:52
#02957:53220000
#02952:00230000
#03958:0023000016000000
#03955:0000000000230000
#03952:1653
#0395b:53
#04052:16160000
#04058:0023000016001600
#0405b:53
#03752:16
#04458:53
#04455:00000063
#02553:0000002200000000
#0255b:0000002200000000
#02556:6242
#02558:6232
#0225a:0000340000340000
#02256:0000340000340000
#03552:0013
#0355b:00000013
#03558:16
#05352:0000002800000028000000280000002800000028000000280000002800000028
#05354:68686868686868686868686868686868
#05356:0028000000280000002800000028000000280000002800000028000000280000
#05452:0000002800000028000000280000002800000000000000000000000000000000
#05454:68686868686868680000000000000000
#05456:0028000000280000002800000028000000000000000000000000000000000000
#05258:6600462666004600
#05252:3626560036263600
#06352:13
#0635b:0013
#06357:0053
#06356:53
#06452:13
#0645b:0013
#06457:0053
#06456:53
#06556:1414
#0655a:64
#06552:0064
#00456:53
#0045b:0053
#00556:53
#0055b:0000005300000000
#00657:53000053
#00652:0053
#00752:53
#00757:0000005300000000
#00856:53
#0085b:0053
#00956:53
#0095b:0053
#01057:00530000
#01052:5353
#0845b:00133300
#08452:33000013
#08458:0033
#08552:4322
#08556:00620062
#08558:00520052
#0855c:0022
#08555:43
#08652:22000016
#08655:00630000
#0865c:22
#08658:00530016
#0835b:00130043
#08352:0033
#04255:0023000000000000
#04558:0053
#05755:00530043
#0575b:0063
#05758:5262
#05958:00630033
#05952:0053
#05956:6252
#06155:00530043
#0615b:0063
#06158:5262
#05657:52
#05652:00220000
#0565c:32
#05857:62
#0585c:00220000
#05852:42
#06057:52
#06052:00220000
#0605c:32
#06257:62
#0625c:00220000
#06252:42
#06656:1414
#06652:54
#0665a:0054
#07756:14141414
#0775a:0054
#06759:15151515
#06852:15151515
#10752:00530000
#10656:00540044
#10652:00340024
#07158:16161616
#12152:001c0000
#07053:0018
#07258:16160000
#09055:00160000
#09052:0016
#09058:16000016
#09155:16
#09152:00160000
#09852:1c1c1c1c
#11658:16000016
#11652:00161600
#07352:16161616
#07452:16160000
#08058:46
#09952:1c1c0000
#02656:00000013
#02652:00000013
#04658:00160000
#04655:0016
#04652:00000016
#02857:00000013
#0285b:00000013
#0275b:0043
#02752:0033
#11952:13000013
#1195b:00131300
#12052:13
#004360:13
#0043b0:0033
#005360:33000023
#0053b0:0000003300000000
#006370:13000033
#006320:0033
#007320:33000023
#007370:0000003300000000
#008360:13
#0083b0:0033
#009360:33000023
#0093b0:0033
#010320:1333
#010370:00530023
#025380:1222
#0253b0:0052005200000000
#025361:1222
#025331:0052005200000000
#0263b1:0013
#026391:00000000000000000033000000000000
#026371:0000000000330000
#026361:00000000000000000000003323000000
#026370:0013
#026350:00000000000000000033000000000000
#026330:0000000000330000
#026320:00000000000000000000003323000000
#0273b0:13330000
#027320:0023
#027321:13
#0273b1:0023
#028321:0013
#028341:00000000000000000033000000000000
#028361:0000000000330000
#028371:00000000000000000000003323000000
#028360:0013
#028380:00000000000000000033000000000000
#0283a0:0000000000330000
#0283b0:00000000000000000000003323000000
#0293c0:1222
#029370:00520000
#029371:1323
#029321:00530000
#030371:12
#030321:0022
#030360:0013
#0313b0:23
#031321:13
#031381:0000002300000000
#0313b1:0013
#031351:0000000000000023
#0333b1:0000000000000013
#034371:33
#0343b1:0023000000000000
#035321:0000000000000013
#036361:33
#036321:0023000000000000
#038381:00000000135353532300000000000000
#038391:0000000000000000005300530053005300000000000000000000000000000000
#038321:00000000000000000000000016565656
#038331:0000000000000000000000000000000000000000000000000056005600560056
#039321:26
#0393b0:13230000
#039390:00330033000000000000000000000000
#039380:0033000000000000
#039320:00001323
#039340:00000000000000000033003300000000
#039350:0000000000330000
#0403b0:13230000
#040390:00330033000000000000000000000000
#040380:0033000000000000
#041380:13000023
#041320:0000005300000000
#0413b1:00000013
#042351:0053000000000000
#0423b1:0023
#042320:0013
#042380:00000023
#0423b1:00000013
#043351:23
#043320:13
#043380:00230000
#0433b0:000000132300
#043380:000000000000000000130023
#044380:13
#044320:00532300
#044350:00000013
#0453b0:53230000
#045380:0013
#045320:00000053
#046320:23
#046380:0016260000000000
#046350:0000001626000000
#046320:0000000000162600
#047320:13
#047350:002300000000
#0473b0:00000013
#047380:000000000000000000000023
#048320:0013
#048350:000023
#050320:13
#050370:00230000
#050361:13
#0503b1:00230000
#0503b1:00000013
#051361:23
#050370:00000013
#051320:23
#051380:00001626
#051320:0000000000560000
#051321:00000016
#051381:0000000000000056
#052321:26
#052380:16260000
#052320:0056000000000000
#052321:00162600
#052381:0000005600000000
#052380:00001626
#052320:0000000000560000
#053340:18383838383838383838383838383838
#053360:0038000000380000003800000038000000380000003800000038000000380000
#053320:0000003800000038000000380000003800000038000000380000003800000038
#054340:38383838383838382800000000000000
#054360:0038000000380000003800000038000000000000000000000000000000000000
#054320:0000003800000038000000380000003800000000000000000000000000000000
#055360:12
#0553b0:00220000
#055381:00130023
#055321:0053
#055360:0012
#0553c0:00000052
#0563c0:22
#056371:1222
#056321:00520000
#057381:12
#057331:00220000
#057350:00130023
#0573b0:0053
#057381:0012
#057321:00000052
#058321:22
#058370:1222
#0583c0:00520000
#059360:12
#0593b0:00220000
#059381:00130023
#059321:0053
#059360:0012
#0593c0:00000052
#0603c0:22
#060371:1222
#060321:00520000
#061381:12
#061331:00220000
#061350:00130023
#0613b0:0053
#061381:0012
#061321:00000052
#062321:22
#062370:1222
#0623c0:00520000
#063360:13
#0633b0:00230000
#063370:0013
#063320:00000023
#064360:13
#0643b0:00230000
#064370:0013
#064320:00000023
#0653a0:14
#065350:00240000
#065320:0014
#065370:00000024
#066320:14
#066370:00240000
#0663a0:0014
#066350:00000024
#067350:1323000000000000
#067320:0000132300000000
#067350:0000000013230000
#067320:0000000000001323
#068370:1424000000000000
#0683a0:0000142400000000
#068370:0000000014240000
#0683a0:0000000000001424
#0753a0:1424000000000000
#075320:0000142400000000
#0753a0:0000000014240000
#076320:0000000000001424
#0773a0:1424000000000000
#077320:0000142400000000
#0773a0:00000000000000001434000000000000
#077380:0000000000340000
#077360:00000000000000000000003424000000
#082320:00130000
#082350:0023
#0823b1:00130000
#082381:0023
#083381:00130000
#083321:0023
#083350:0013
#0833b0:00000023
#083381:00000013
#084321:23
#084350:13
#0843b0:00230000
#084321:00130000
#084381:0023
#0843b1:00000013
#085351:23
#085361:00120032
#085321:0032
#086321:32000000000000003636363626000000
#086351:00330000
#086341:00000000003400000000000000000000
#086331:00000000000035350000000000000000
#085380:00120032
#0853c0:0032
#0863c0:32
#086380:00000000333435353636363626000000
#103320:00160026
#103380:0056
#103381:00160026
#103321:0056
#104361:00140000
#104321:0024
#1043a1:00000014
#105361:24
#1053b1:00130023
#105371:0053
#105320:00145400
#105360:00000024
#106360:00140000
#1063a0:0024
#106320:00000014
#107360:24
#107320:00130000
#107360:0023
#1073a1:00142400
#109381:00160036
#109351:0000003500350035
#109321:0035
#110321:35
#110351:0035000000000000
#110381:00260000
#110320:00160026
#110340:00000000003600000000360000000000
#110360:00000000000036000036000000000000
#110370:00000000000000360000000000000000
#110380:0036
#110330:00000000000000000000003600000000
#1133b0:0013
#113380:00000023
#114380:13
#114350:00230000
#114350:0013
#114320:00000023
#122380:000000135353535353535353
#122370:000000000000005300530053005300530053005300530053
#123380:535353000000000000000000
#123370:005300530053000000000000000000000000000000000000
#1233a0:000000335353535353535353
#123390:000000000000005300530053005300530053005300530053
#1243a0:535353000000000000000000
#124390:005300530000000000000000000000000000000000000000
#124380:000000000053000000000000000000000000000000000000
#124360:000000335353535353535353
#124370:000000000000005300530053005300530053005300530053
#125360:535353000000000000000000
#125370:005300530000000000000000000000000000000000000000
#125380:000000000053000000000000000000000000000000000000
#1253a0:000000335353535353535353
#125390:000000000000005300530053005300530053005300530053
#1263a0:535353330000000000000000
#126390:000053000000530000005300000000330000000000000000000000000000000000000000000000000000000000000000
#126380:0000003300000000
#126370:00000000000000330000000000000000
#127370:000000000033000000000000
#127390:0033
#1273b0:000000000000003300000000
#1313d0:00210000
#126351:00120000
#126341:00000000003200000000000000000000
#126331:0000003200000000
#126321:00000000000000220000000000000000
#127321:000000000012000000000000
#127341:0032
#127361:000000000000002200000000
