This file was generated by Ched 2.7.0.0.
#TITLE ""
#ARTIST ""
#DESIGNER ""
#DIFFICULTY 0
#PLAYLEVEL
#SONGID ""
#WAVE ""
#WAVEOFFSET 0
#JACKET ""
#REQUEST "ticks_per_beat 480"
#00002: 4
#BPM01: 200
#00008: 01
#TIL00: ""
#HISPEED 00
#MEASUREHS 00
#0041a:14
#00414:0014
#0051a:14
#00514:0014
#0061a:14
#00614:0014
#0261a:14
#02614:00140000
#02618:0014
#0251a:14
#02514:00140000
#02518:0014
#02512:00000014
#02510:41
#0411a:14141400
#04114:00000014
#04110:41
#04219:00001414
#04214:14140000
#04313:00141414
#04319:14
#04418:14141400
#04412:00000014
#04519:00001414
#04512:14140000
#04613:00141414
#04619:14
#0551a:14
#05510:41
#05617:14
#11512:14000016
#11518:00261600
#11612:16000016
#11618:00261600
#12214:00140000
#12318:00140000
#12412:00140000
#1251a:00140000
#00812:14
#00818:0014
#00912:14
#00918:0014
#01012:14
#01018:0014
#01518:00000014
#01914:00000014
#02018:16000016
#02012:0000001600000000
#02112:0016000000000016
#02118:0016
#02218:00160000
#02212:0000000000160000
#02812:14
#02818:00140000
#02814:0014
#02712:14
#02718:00140000
#02714:0014
#0271a:00000014
#0341a:14
#03414:00140000
#03418:0014
#0331a:14
#03314:00140000
#03318:0014
#03312:00000014
#03612:14
#03618:00140000
#03614:0014
#03512:14
#03518:00140000
#03514:0014
#0351a:00000014
#04912:00140000
#05712:14
#05815:14
#0591a:14
#06017:14
#06112:14
#06215:14
#06318:14
#06314:0014
#06418:14
#06414:0014
#0651a:14
#06512:0014
#0661a:14
#06612:0014
#06718:1414
#06714:00140014
#0681a:1414
#06812:00140014
#06918:14141414
#06914:0014001400140014
#07118:00140000
#07114:0014
#0711a:00000014
#07112:24
#07110:41
#07214:1414
#0721a:00140000
#07218:00000014
#07318:00140000
#07314:0014
#0731a:00000014
#07312:24
#07414:1414
#0741a:00140000
#07418:00000014
#07618:16161600
#07612:0016001600000000
#07812:0016000014000000
#07818:16160014
#0781f:0011
#07912:14001616
#07918:00140000
#08012:16
#0801a:00140014
#08014:0014
#08114:14
#08118:00161616
#08218:16
#08612:00140000
#08714:0014
#0871a:00240014
#0871f:00210000
#08814:14
#08818:00140014
#08812:0014
#08810:00410000
#08912:14
#08914:0014
#0891a:00240014
#09014:14
#09018:0000003434343434
#09118:0014
#09112:00240014
#09218:14
#09214:00140014
#0921a:0014
#0931a:14
#09318:0014
#09312:00240014
#09418:14
#09414:0000003434343434
#09514:0014
#09518:00000014
#0951a:00240000
#09612:14
#0961a:00140000
#09614:0014
#09618:00000014
#09712:14
#09714:0014
#09718:00000014
#0971a:00240000
#09812:14
#0981a:00141414
#09814:0000001400140014
#09918:0014
#09914:00000014
#0991a:14
#09912:00240000
#1001a:14
#10012:00140000
#10018:0014
#10014:00000014
#1011a:14
#10118:0014
#10114:00000014
#10112:00240000
#1021a:14
#10212:00141414
#10218:0000001400140014
#10318:00140000
#10312:14
#10310:00410000
#1041a:00140000
#10514:00140000
#10612:00140000
#10718:00140000
#1081a:00140000
#10914:00140000
#11012:00140000
#1111a:00241400
#11114:00000014
#11214:14
#11218:00141400
#11212:00000014
#11312:14
#1131a:00241400
#11314:00000014
#11414:14
#11418:00141400
#11412:00000014
#11712:1600001600002600
#11718:0000260016000016
#11812:1600001600002600
#11818:0000260016000016
#11912:1600001600160016
#11918:00262626
#07718:00000016
#07712:3400340000000016
#12012:0016001600160016
#12018:26262626
#12112:0016000000000000
#12118:26260000
#07018:0024
#0231a:0034343434343434
#0291a:00343400
#03012:00343400
#03118:00343400
#03214:00343400
#0371a:00343400
#03812:00343400
#03918:00343400
#04014:00343400
#07512:00343400
#12614:00000000003434340000000000000000
#0555a:54
#05657:54
#04952:00140000
#05752:64
#05855:64
#0595a:54
#06057:54
#06152:64
#06255:64
#08652:00540000
#08654:00000014
#10358:00640000
#1045a:00640000
#10554:00540000
#10652:00540000
#10758:00640000
#1085a:00640000
#10954:00540000
#11052:00540000
#07058:0014
#0073a0:1424
#011320:1424
#0123a0:14
#012380:00000024
#013320:14
#013340:00000024
#0143a0:14
#014380:00000024
#015320:14
#015340:0024
#016320:14
#016340:00000024
#0173a0:14
#017380:00000024
#018320:14
#018340:00000024
#0193a0:14
#019380:0024
#0233a0:1434343434343434
#024360:24
#0293a0:14343400
#029380:00000024
#030320:14343400
#030340:00000024
#031380:14343400
#0313a0:00000024
#032340:14343400
#032320:00000024
#0373a0:14343400
#037380:00000024
#038320:14343400
#038340:00000024
#039380:14343400
#0393a0:00000024
#040340:14343400
#040320:00000024
#0473a0:14342400
#047340:00000014
#048340:34240000
#048380:00001434
#049380:24
#050320:14342400
#050380:00000014
#051380:34240000
#051340:00001434
#052340:24
#0523a0:00143424
#053320:15555555555555555555555555555555
#053330:0055005500550055005500550055005500550055005500550055005500550055
#054320:55555555555555552500000000000000
#054330:0055005500550055005500550055005500000000000000000000000000000000
#0553a0:14
#055370:00000054
#056370:34
#0563a0:0024
#057320:14
#057350:00000054
#058350:34
#058320:0024
#0593a0:14
#059370:00000054
#060370:34
#0603a0:0024
#061320:14
#061350:00000054
#062350:34
#062320:0024
#070380:1434343424000000
#075320:14343400
#075340:00000024
#076320:00000014
#077320:34340000
#077340:0024
#082340:00140000
#083320:24
#083380:00140000
#0843a0:24
#084320:00140000
#085340:24
#0853a0:00140000
#086380:24
#086320:00140000
#086340:00000024
#090380:0000143434343434
#0913a0:24
#094340:0000143434343434
#095320:24
#103380:00140000
#1043a0:54340000
#104380:00000024
#105340:00140000
#106320:54340000
#106340:00000024
#107380:00140000
#1083a0:54340000
#108380:00000024
#109340:00140000
#110320:54340000
#110340:00000024
#126340:00000000143434340000000000000000
#126320:0034
#127320:00000000000000340000000000000000
#127330:0034
#127340:00000000000000000034000000000000
#131340:00240000
