This file was generated by Ched 2.6.4.0.
#TITLE ""
#ARTIST ""
#DESIGNER ""
#DIFFICULTY 0
#PLAYLEVEL
#SONGID ""
#WAVE ""
#WAVEOFFSET 0
#JACKET ""
#REQUEST "ticks_per_beat 480"
#00002: 4
#BPM01: 145
#BPM02: 150
#00008: 01
#02408: 02
#TIL00: ""
#HISPEED 00
#MEASUREHS 00
#0001a:14000014
#00112:0014
#00212:00140000
#0091a:14
#00912:00000014
#04312:14
#0441a:14
#04410:0000000000000041
#04614:14
#04718:14
#04818:14
#0101a:0014
#01010:0041
#01112:00140000
#01218:14
#01214:00000014
#01318:0014
#01414:00140000
#0151a:14
#01514:00000014
#0161a:0014
#01714:00140000
#01818:14
#01812:00000014
#01810:00000041
#01918:0014
#02012:00140000
#02912:1616
#03118:14
#03214:14
#03318:14
#03512:0016
#03518:26
#03718:0016
#03712:16
#03918:14
#04014:14
#04514:14
#02718:2616
#02710:0000000000410000
#03414:14
#0211f:11
#0261f:0000000000000021
#03610:0000000000000041
#00310:41
#0033a0:14000024
#004320:0014
#005320:00240000
#006380:14000024
#007340:0014
#008340:00240000
#0213a0:14000024
#022320:0014
#023320:00240000
#0243a0:14000024
#025320:0014
#026320:0034342400000000
#028380:1626
#030320:1626
#036380:1626
#038320:1626
#0413a0:1434
#0423a0:24
#049320:14
#050320:24
#0513a0:14
#0523a0:24
#053320:14003434
#054320:00240000
#055380:00160000
#0583a0:0000000000000024
