This file was generated by Ched 2.7.0.0.
#TITLE ""
#ARTIST ""
#DESIGNER ""
#DIFFICULTY 0
#PLAYLEVEL
#SONGID ""
#WAVE ""
#WAVEOFFSET 0
#JACKET ""
#REQUEST "ticks_per_beat 480"
#00002: 4
#BPM01: 145
#BPM02: 150
#00008: 01
#02408: 02
#TIL00: ""
#HISPEED 00
#MEASUREHS 00
#0241a:14
#02418:00000014000000000000000000000000
#02416:0000001400000000
#02414:00000000000000000014000000000000
#02412:23000014
#0241b:00000023
#02512:0000130000001313
#02518:0013000000130000
#0251b:0000000013000013
#02515:0000001300000000
#0301b:0000000000130000
#03018:13000000001300000000000013000000
#03015:0013000000000013
#03012:0000131300000000
#03118:00130000
#03115:0000000000000013
#0311b:0000000000001313
#03112:0013
#03212:0000130000000013
#0321b:0013
#03218:00000013
#03215:0013
#03315:0013000013000000
#03318:0000130000001313
#03915:1300000000000013
#03912:00130000
#03918:0013
#0391b:0000000000001313
#03812:00130013
#03818:0000130013000013
#03815:0013000000130000
#04012:00130000
#04018:00130000000000001300000000000000
#00815:1300000000000013
#0081b:1313000000130000
#00812:00130000
#00818:00000023
#00912:0013
#00918:0000000000130000
#0091b:0013
#01012:00130000
#01015:0000001300001300
#0101b:00131300
#01010:0041
#0111b:13001313
#01118:0000000000000013
#01115:00130000
#01112:00000013
#0121b:13001313
#01218:0000001300000000
#01212:0013
#0201b:00130013
#02012:0000000013000013
#02016:13
#0211b:0013
#02112:0013
#02112:0013
#0211f:11
#02118:2300002300000000
#02115:00000023000000000000000000000000
#02215:0013000023000023
#02212:00130000
#0221b:0000001300000000
#02218:00000000000000000000002300000000
#02315:0000000000000013
#02312:13
#0231b:13
#0231b:13
#02318:00000013
#0291b:0000000013000013
#02915:0000131300130000
#02918:00000000001300000000000013000000
#02912:0013000000000000
#0281b:0000131300000000
#02818:0013000000001300
#02815:13000000001300000000130000001300
#02715:00000000001300000000130000000000
#0271b:0013000000000000
#02712:0000000013000013
#02718:0000131300130000
#02710:0000000000410000
#02615:00000013
#02618:0000000000130023
#02619:0014141400000000
#02613:0014141400000000
#0261f:0000000000000021
#03712:0000131300000013
#03718:00000000001300000000000013001300
#03715:0013000013000000
#0371b:0013
#03618:0013000000000000
#0361b:0000131300001300
#03615:00000000001300000000130000000000
#03612:1300000000000023
#03610:0000000000000041
#03515:00000000001300001300000000001300
#03518:0013000000130000
#0351b:0000131300000000
#03512:0000000000130000
#03412:0013000000001300
#03418:0000000000130000
#03414:00130000
#03416:0000001300000000
#0341b:0000000000000023
#04114:00000014000000000000000000000000
#04112:0000001400000000
#04118:00000000000000000000001400000000
#0411a:0000000000000014
#04214:00000014000000000000000000000000
#04212:0000001400130000
#0421b:0013
#04215:0013
#04218:0000000000130000
#01418:0000000000000013
#01415:00000013
#01412:00130000
#01417:13
#0141b:0013
#0151b:0013
#01515:0000000000130000
#01512:0013
#0161b:00130000
#01618:0000001300001300
#01612:00131300
#01712:13001313
#01715:0000000000000013
#01718:00130000
#0171b:00000013
#01812:13001313
#01815:0000001300000000
#0181b:0013
#01810:00000041
#00018:00000000000013000000000000000013
#00015:00000013000000000000000000000000
#00012:23000013
#0001b:2300000000131300
#00115:00001300000000000000001300000000
#0011b:0013
#00118:0000000000000013
#00112:0000001313000000
#00212:00000000130000000000000000130000
#00218:00000000000000130000000000000000
#00215:0000000000130000
#0021b:0013130000001313
#00612:00001313
#0061b:13
#00615:0000001300000000
#00618:0000000013130000
#00312:1313
#0031b:00000013
#00319:0000000000130000
#00310:41
#0041b:00130000
#00414:0000001300000000
#00412:0013
#04312:13
#04318:1300000013000013
#04315:0013000013000013
#0431b:0013000000001300
#0441b:0000001300001300
#04418:00130000
#04412:0013001300000000
#04415:0000130000000023
#04410:0000000000000041
#04518:0013000000000000
#04512:00130013
#0451b:0000001300000013
#04515:0000000013000013
#04618:0013000000001300
#04615:0000130000130000
#0461b:0000001300000013
#04612:0000001300000013
#04718:0013000000130000
#04715:0000130000000013
#0471b:0000001300000013
#04712:0013
#04818:0013000000000000
#0481b:0013
#04819:0000000000130000
#04817:00000013
#04915:0000001300000000
#0491b:0013
#04918:00000013
#04912:23
#05118:0000001300000000
#05112:0013
#05115:00000013
#0511b:23
#0521b:13
#05218:0013000000130000
#05215:00130013
#05212:0000001300000000
#05412:0013000000001300
#05418:00002300000000001300130000130000
#05415:0000230000000013
#0541b:00130000
#0551b:13
#05512:13
#00512:0000000000000013
#00516:13
#00517:00000013
#0051b:0013130000000000
#00715:0000131300000000
#0071b:00131300
#00718:0013000000000000
#00712:0000000000000013
#05012:00000013000000001300000000000000
#05017:0000001300000000
#05015:13000013
#0501b:13
#0131b:00000013
#01316:0013
#01312:00130000
#01317:13
#01912:00000013
#01917:0013
#0191b:00130000
#01916:13
#05312:00000013000000001300000013000000
#0531b:13000000000013000000000000000013
#05315:23000000000023000000000000000023
#05318:00000023000000002300000023000000
#03252:0000000000000013
#03255:0063
#04058:00230000000000001300000000000000
#0105b:0063
#01055:00000063
#0115b:63
#01155:00630000
#0295b:0000000000000063
#03058:23
#03052:0000001300000000
#03055:0000000000000063
#0285b:0000001300000000
#02855:2300000000000013
#02752:0000000000000053
#02758:0000000000530000
#03758:0000000000000053
#03755:0063
#03558:0000000000530000
#03555:0000000000000063
#03652:2300000000000013
#0365b:0000001300000000
#03358:0000530000000053
#03355:0063
#0395b:0000000000000063
#01652:0053
#01658:00000053
#01752:53
#01758:00530000
#00652:0013
#00352:0013
#0045b:00130000
#02555:0000002300000000
#02558:0000000000230000
#02552:00530000
#0255b:0063
#0425b:0063
#04255:0063
#04258:0000000000230000
#04252:0000000000230000
#04352:53
#04358:5300000000000053
#04355:0023000063000000
#0435b:0023000000000000
#0445b:0000002300000000
#04458:00530000
#04452:0000002300000000
#04455:0000630000000013
#0315b:0000000000000063
#03152:0053
#05057:0000005300000000
#0505b:63
#01452:00630000
#01457:23
#0135b:00000053
#01356:0023
#01352:00630000
#01357:23
#0125b:00000053
#0205b:00530000
#02056:23
#01952:00000063
#01957:0023
#0195b:00530000
#01956:23
#01852:00000063
#00556:13
#00557:00000013
#0075b:00130000
#00855:13
#02658:0000000000000013
#0345b:0000000000000013
#02452:13
#0245b:00000013
#04952:13
#0515b:13
#000350:0000000013230000
#001380:0000132300000000
#002350:1323000000000000
#0033b0:13
#003370:0023
#003321:00000013000023000000000000000000
#003320:00000013
#004360:00230000
#0033b1:00000000000000000000000000000013
#0043b1:0023000000000000
#004370:0013
#0053b0:23
#004321:00000000000000000000001300002300
#005360:00130000
#005320:00000023
#0053b1:00000000000000130000230000000000
#006320:13
#006350:00000023000000000000000000000000
#006381:00000013000000000000000000000000
#0063b1:0000002300000000
#0063b1:00000013
#006381:00000000000000000000000000000023
#006350:00000000000000000000000000000013
#007320:0023000000000000
#007350:0013
#007320:00000000000000000000002300000000
#0073b1:00000000000000000000001300000000
#007381:0000000000000023
#008381:00130000
#0083b1:00000000000000230000000000000000
#008320:00000000000000130000000000000000
#008350:0000000000230000
#0093a0:1400002400000000
#009370:00000034000000000000000000000000
#009350:00000014
#009320:00000000000000000000000000000034
#010350:0024000000000000
#0103b0:0013
#010380:00000023
#010351:00000013
#011321:23
#0113b0:13
#011380:00230000
#011351:00130000
#011321:0023
#012351:13
#012321:0000002300000000
#0123b1:00000013
#013371:33
#0133b1:00230000
#013320:00130023
#013360:0033
#0133b1:00000013
#014371:33
#0143b1:00230000
#014320:00130000
#014360:0023
#015320:1400002400000000
#015350:00000034000000000000000000000000
#015370:00000014
#0153a0:00000000000000000000000000000034
#016370:0024000000000000
#016320:0013
#016350:00000023
#016381:00000013
#0173b1:23
#017320:13
#017350:00230000
#017381:00130000
#0173b1:0023
#018381:13
#0183b1:0000002300000000
#018321:00000013
#019361:33
#019321:00230000
#0193b0:00130023
#019370:0033
#019321:00000013
#020361:33
#020321:00230000
#0203b0:00130000
#020370:0023
#0213a0:00000000000000000000001300002300
#0213b0:000000000000000000000000000000000000000000000000000000000000000000000000000000000000000000000000000000000000000000000000000000000000005300530053005300530053005300530053000000000000000000000000
#021390:000000000000000000000000000000000000000000000000000000000000000000005353535353535353000000000000
#021351:0000000000000013
#021341:000000000000000000000000000000000000000000000000000000000000000000000000000000000000000000000000000000000000000000000000000000000000000000000000000000000000000000000000005300530053005300530053
#021361:000000000000000000000000000000000000000000000000000000000000000000000000000000000000005353535353
#022351:23
#0223a0:1323000000000000
#0223b0:005300530053005300530053000000000000000000000000000000000000000000000000000000000000000000000000000000000000000000000000000000000000000000000000000000000000000000000000000000000000000000000000
#022390:005353535353000000000000000000000000000000000000000000000000000000000000000000000000000000000000
#023330:00000013000023000000000000000000
#023320:000000000000000000000000000000000000005300530053005300530053005300530053000000000000000000000000000000000000000000000000000000000000000000000000000000000000000000000000000000000000000000000000
#023340:000000000000000000005353535353535353000000000000000000000000000000000000000000000000000000000000
#023381:0000001323000000
#023391:000000000000000000000000000000000000000000000000000000000000000000000000005300530053005300530053000000000000000000000000000000000000000000000000000000000000000000000000000000000000000000000000
#023371:000000000000000000000000000000000000005353535353000000000000000000000000000000000000000000000000
#023330:00001323
#023320:000000000000000000000000000000000000000000000000000000000000000000000000000000000000000000000000005300530053005300530053005300530053005300530053000000000000000000000000000000000000000000000000
#023340:000000000000000000000000000000000000000000000000005353535353535353535353000000000000000000000000
#025320:00132300
#025350:0000005300000000
#0253b1:00001323
#025381:0000000000530000
#026321:0000000000000013
#027351:0023000000000000
#027381:0000000000130000
#0273b1:0000000000000023
#027320:0000000000000013
#028350:53
#028320:0023000000000000
#0283b0:0000000000000013
#029380:0023000000000000
#0293b0:0000000000000013
#030380:53
#0303b0:0023000000000000
#030350:0000000000000013
#031320:00230000
#031320:0013
#031350:00000023
#0313b0:0000000000000013
#032380:00230000
#032350:0013
#032320:00000023
#033380:00130000
#0333b0:0023
#033351:0013
#033321:00000023
#033381:0000000000000013
#0343b1:0000002300000000
#034351:0000000000000013
#035321:0023000000000000
#035381:0000000000130000
#0353b1:0000000000000023
#035350:0000000000000013
#036320:53
#036350:0023000000000000
#036380:0000000000000013
#0373b0:0023000000000000
#037350:0013
#037320:00000023
#037380:0000000000000013
#0383b0:0023000000000000
#0393b0:13
#039380:00230000
#039320:0013
#039350:00000023
#0393b0:0000000000000013
#040380:00530000000000000000000000000000
#0403b0:00230000
#040320:0013
#041350:23
#0413a1:14
#041361:0024
#041320:0014
#042360:24
#0423a1:14
#042361:0000002400000000
#0423b1:00001323
#042381:0000000000530000
#042350:00001323
#042320:0000000000530000
#043320:13230000
#043350:0053000000000000
#043381:13230000
#0433b1:0053000000000000
#043351:0013
#043321:00000023
#043381:0000000000000013
#0443b1:0023000000000000
#044381:00132300
#0443b1:0000005300000000
#044350:00132300
#044320:0000005300000000
#048350:00130000
#048320:00000023
#049380:13230000
#049350:00001323
#0503b0:13000023
#050370:0000003300000000
#051350:13230000
#051380:00001323
#055350:00130000
#056350:000000000000000000000000000000000000000000000000000000000000000000000000000000000000000000000000000000000000000000000000530000000000000000530053005300530053005300000000000000000000000000000000
#056360:000000000000000000000000000000000000000000000000000000000000000000000000000000000000000000000000000000000000000000000000005300530053005300000000000000000000000000000000000000000000000000000000
#056340:000000000000000000000000000000000000000000000000000000000000000000000000000000000000000000000000000000000000000000000000000053005300530053000000000000000000000000530053005300530053005300530053
#056330:000000000000000000000000000000000000000000000000000000000000000000000053535353535300000000000000
#056320:000000000000000000000000000000000000000000000000000000000000000000000000000000000053535353535353
#057320:53
#058320:0000000000000023
